楼主: kamusyy

[分享] DECCA 多拉蒂《平凡人的号角/阿帕拉契之春》企鹅三星 [APE/百度]

  [复制链接]
发表于 2019-1-20 17:54:13 | 显示全部楼层
感谢楼主分享
回复 支持 反对

使用道具 举报

发表于 2019-1-22 00:41:37 | 显示全部楼层
为了效率更高一些,今天晚上花了三个小时的时间来研究用EAC(Exact Audio Copy)这个大家熟悉的抓轨软件来试着制作cue,可对于像《号角为百姓吹响·阿帕拉契之春》这样的专辑,因为曲目之间有的是一气呵成几乎没有停顿,EAC完全无能为力,自动生成的cue基本不能用,又试着把音乐文件拉进goldwave,可在24寸的屏幕上都无法正确显示曲与曲之间的波形间隔,看样子得升级为更大的屏幕了(24寸是康佳电视机,带有VGA接口,1080P分辨率,我把它作为显示器来用)。
回复 支持 反对

使用道具 举报

发表于 2019-1-22 00:48:38 | 显示全部楼层
本帖最后由 黑衣侠客 于 2019-1-22 00:54 编辑

以下就是EAC自动生成的CD1的cue,看看是不是一塌糊涂:
TRACK 01 AUDIO
    TITLE ""
    INDEX 01 00:00:00
  TRACK 02 AUDIO
    TITLE ""
    INDEX 01 00:03:39
  TRACK 03 AUDIO
    TITLE ""
    INDEX 01 02:49:05
  TRACK 04 AUDIO
    TITLE ""
    INDEX 01 02:52:36
  TRACK 05 AUDIO
    INDEX 01 26:17:73
  TRACK 06 AUDIO
    TITLE ""
    INDEX 01 26:21:49
  TRACK 07 AUDIO
    TITLE ""
    INDEX 01 26:23:35
  TRACK 08 AUDIO
    TITLE ""
    INDEX 01 26:27:19
  TRACK 09 AUDIO
    INDEX 01 56:34:14
  TRACK 10 AUDIO
    INDEX 01 58:48:56
  TRACK 11 AUDIO
    TITLE ""
    INDEX 01 58:49:57
  TRACK 12 AUDIO
    TITLE ""
    INDEX 01 58:51:27
  TRACK 13 AUDIO
    INDEX 01 61:18:66
  TRACK 14 AUDIO
    TITLE ""
    INDEX 01 61:20:56
  TRACK 15 AUDIO
    TITLE ""
    INDEX 01 64:19:35
  TRACK 16 AUDIO
    TITLE ""
    INDEX 01 67:48:24
回复 支持 反对

使用道具 举报

发表于 2019-1-22 08:05:01 | 显示全部楼层
楼主顶级好人。
回复 支持 反对

使用道具 举报

发表于 2019-1-22 09:46:51 | 显示全部楼层
Let music to begain a fine day.
回复 支持 反对

使用道具 举报

发表于 2019-1-22 14:13:47 | 显示全部楼层
感谢分享经典音乐。
回复 支持 反对

使用道具 举报

发表于 2019-1-23 15:29:41 | 显示全部楼层
没有试听啊,那看看凡人的嘶嚎
回复 支持 反对

使用道具 举报

发表于 2019-1-23 17:00:29 | 显示全部楼层
谢谢楼主分享
回复 支持 反对

使用道具 举报

发表于 2019-1-23 19:46:24 | 显示全部楼层
号角吹响,无论平凡是否,只要春天
回复 支持 反对

使用道具 举报

发表于 2019-1-23 21:31:01 | 显示全部楼层
都是科普兰的经典之作
回复 支持 反对

使用道具 举报

头像被屏蔽
发表于 2019-1-24 15:19:18 | 显示全部楼层
提示: 作者被禁止或删除 内容自动屏蔽
回复 支持 反对

使用道具 举报

发表于 2019-1-25 04:26:11 | 显示全部楼层
谢谢楼主分享
回复 支持 反对

使用道具 举报

发表于 2019-1-29 00:38:49 | 显示全部楼层
柯普兰的听得不多。下载试听。谢谢分享!
回复 支持 反对

使用道具 举报

发表于 2019-1-29 13:51:37 | 显示全部楼层
欣赏,多谢分享!
回复 支持 反对

使用道具 举报

您需要登录后才可以回帖 登录 | 立即注册

本版积分规则

手机版|炫音音乐论坛 ( 皖ICP备13017420号-3 )皖公网安备 34082502000069号

GMT+8, 2019-8-23 09:11 , Processed in 0.065509 second(s), 17 queries , Gzip On.

Powered by Discuz! X3.4

© 2004-2017 炫音音乐论坛

快速回复 返回顶部 返回列表