查看: 480|回复: 19

[休闲音乐] [原抓] Kitaro 喜多郎 《 Best 16 Hits 选集16 》 日版 [FLAC/百度云]

[复制链接]
发表于 2019-1-24 00:42:07 | 显示全部楼层 |阅读模式
本帖最后由 colinkfo 于 2019-1-24 00:46 编辑

cover_wm_wm.jpg


喜多郎的16首精选集, 你是否收藏过? 建议顺着次序欣赏, 因为有不少曲是连贯的.



专辑名称: Best 16 Hits 选集16
专辑乐手: Kitaro 喜多郎
出品公司: Pony Canyon (日本)
发行年份: 1989
唱片编号: CR06319


01. 絲綢之路
02. 朝の祈り
03. 天山
04. シルクロード幻想
05. 神秘なる砂の舞
06. 飛天
07. 時の流れ
08. 永遠の路
09. 光と影
10. 西に向って
11. モロリズム
12. 新たなる旅路
13. 宇宙エネルギー
14. 無限水
15. 知
16. 流





试曲 : シルクロード幻想


back_wm_wm.jpg


游客,如果您要查看本帖隐藏内容请回复,如果您想免回复、免金币,直接查看内容,请开通炫音VIP


喜多郎选集16 Kitaro - Best 16 Hits__文件密码.rar

176 Bytes, 下载次数: 59

售价: 1 金币  [记录]

评分

参与人数 1音符 +5 金币 +5 收起 理由
wufeng + 5 + 5 炫音因你而精彩!

查看全部评分

 楼主| 发表于 2019-1-24 00:44:44 | 显示全部楼层
Exact Audio Copy V1.1 from 23. June 2015

EAC 抓取日志文件从1. 七月 2017, 16:18

喜多郎 Kitaro / Best 16 Hits 选集16

使用驱动器  :HL-DT-STDVDRAM GP30NB20   Adapter: 1  ID: 0

读取模式      : 可靠Secure
使用精确流     : 是
清空音频缓存    : 是
使用 C2 指示器 : 否

读取偏移校正:               : 6
读取 Lead-In 和 Lead-Out : 否
用静音填充抓取中丢失偏移的采样       : 是
去除首尾静音块               : 否
在CRC 计算中使用了空样本       : 是
已用接口                  : Win NT 及 2000 本地 Win32 接口

所用输出模式:   : 用户定义的编码器
已选比特率     : 896 kBit/s
质量        : 高
添加 ID3 标签 : 否
命令行压缩器    : C:\Program Files\Exact Audio Copy\FLAC\FLAC.EXE
附加命令行参数:  : -8 -V -T "Date=%year%" -T "Genre=%genre%" -T "COMMENT=ripped by Colinkfo;" %source%


已抓取 CD 的 TOC

     音轨 |    起始    |    长度    |  起始扇区  |  结束扇区  
    --------------------------------------------
      1 |  0:00.00 |  4:28.05 |      0 |  20104
      2 |  4:28.05 |  6:02.25 |  20105 |  47279
      3 | 10:30.30 |  4:15.20 |  47280 |  66424
      4 | 14:45.50 |  4:26.57 |  66425 |  86431
      5 | 19:12.32 |  8:32.13 |  86432 | 124844
      6 | 27:44.45 |  3:24.15 | 124845 | 140159
      7 | 31:08.60 |  2:52.62 | 140160 | 153121
      8 | 34:01.47 |  3:43.00 | 153122 | 169846
      9 | 37:44.47 |  3:04.43 | 169847 | 183689
     10 | 40:49.15 |  2:50.35 | 183690 | 196474
     11 | 43:39.50 |  2:26.70 | 196475 | 207494
     12 | 46:06.45 |  2:50.72 | 207495 | 220316
     13 | 48:57.42 |  8:09.58 | 220317 | 257049
     14 | 57:07.25 |  4:40.70 | 257050 | 278119
     15 | 61:48.20 |  6:23.70 | 278120 | 306914
     16 | 68:12.15 |  4:09.27 | 306915 | 325616


范围状态及错误

已选择范围

     文件名 H:\New Folder\喜多郎 Kitaro - Best 16 Hits 选集16.wav

     峰值电平 100.0 %
     抓取速度 5.1 X
     范围质量 99.9 %
     复制 CRC 392C2787
     复制成功

没有错误发生


AccurateRip 摘要

音轨  1  精确地校准抓取  2)  [36A3F504]  (AR v2)
音轨  2  精确地校准抓取  2)  [8FCFB8C1]  (AR v2)
音轨  3  精确地校准抓取  2)  [2C1A4E22]  (AR v2)
音轨  4  精确地校准抓取  2)  [366AAE5A]  (AR v2)
音轨  5  精确地校准抓取  2)  [5AD4713D]  (AR v2)
音轨  6  精确地校准抓取  2)  [456FA484]  (AR v2)
音轨  7  精确地校准抓取  2)  [C0ADE744]  (AR v2)
音轨  8  精确地校准抓取  2)  [A14CB68D]  (AR v2)
音轨  9  精确地校准抓取  2)  [BD3AA208]  (AR v2)
音轨 10  精确地校准抓取  2)  [84CFCA17]  (AR v2)
音轨 11  精确地校准抓取  2)  [62F20A51]  (AR v2)
音轨 12  精确地校准抓取  2)  [EF92F479]  (AR v2)
音轨 13  精确地校准抓取  2)  [2F711404]  (AR v2)
音轨 14  精确地校准抓取  2)  [6968E53B]  (AR v2)
音轨 15  精确地校准抓取  2)  [38D587ED]  (AR v2)
音轨 16  精确地校准抓取  2)  [EE4393E2]  (AR v2)

所有音轨精确校准抓取

状态报告结尾

==== 记录校验日志 F30C6D3091225845774F4DDA860F0F8FBEED1361957FF9635E1B680837DB75DD ====

点评

意境非常好  发表于 2019-2-10 06:01
回复 支持 反对

使用道具 举报

发表于 2019-1-24 07:36:59 | 显示全部楼层
非常好的一张精选集,有意境
回复 支持 反对

使用道具 举报

发表于 2019-1-24 09:48:17 | 显示全部楼层
多谢楼主分享喜多郎的16首精选集!
回复 支持 反对

使用道具 举报

发表于 2019-1-24 12:15:47 | 显示全部楼层
多谢楼主分享喜多郎
回复 支持 反对

使用道具 举报

发表于 2019-1-25 23:20:28 | 显示全部楼层
音乐无国界,真的很舒畅,一幅边关的画卷!
回复 支持 反对

使用道具 举报

发表于 2019-1-26 15:50:58 | 显示全部楼层
谢谢分享,谢谢
回复 支持 反对

使用道具 举报

发表于 2019-2-2 11:57:57 | 显示全部楼层
谢谢楼主分享,辛苦了!
回复 支持 反对

使用道具 举报

发表于 2019-2-2 17:40:16 | 显示全部楼层
谢谢楼主分享!
回复 支持 反对

使用道具 举报

发表于 2019-2-2 21:11:32 | 显示全部楼层
谢谢分享了
回复 支持 反对

使用道具 举报

发表于 2019-2-9 18:48:25 | 显示全部楼层
感谢楼主分享,辛苦了
回复 支持 反对

使用道具 举报

发表于 2019-2-15 11:18:47 | 显示全部楼层
多谢楼主分享
回复 支持 反对

使用道具 举报

发表于 2019-5-16 02:39:07 | 显示全部楼层
感谢楼主分享,辛苦了
回复 支持 反对

使用道具 举报

发表于 2019-5-16 13:23:45 | 显示全部楼层
谢谢分享,是喜多郎的粉丝
回复 支持 反对

使用道具 举报

您需要登录后才可以回帖 登录 | 立即注册

本版积分规则

手机版|炫音音乐论坛 ( 皖ICP备13017420号-3 )皖公网安备 34082502000069号

GMT+8, 2019-5-25 19:29 , Processed in 0.073706 second(s), 27 queries , Gzip On.

Powered by Discuz! X3.4

© 2004-2017 炫音音乐论坛

快速回复 返回顶部 返回列表