查看: 531|回复: 51

[器乐] 新时代影音 国乐王者之巅峰巨作《盛典》[WAV/百度网盘]

  [复制链接]
发表于 2019-3-25 22:25:22 | 显示全部楼层 |阅读模式
本帖最后由 kamusyy 于 2019-4-8 13:36 编辑

盛典专辑封面

盛典专辑封面


专辑名称:盛典
专辑艺人:群星
音乐类型:民乐
发行公司:广州新时代影音
ISRC:CD-F21-06-300-00/A.J6
条形编码:9787884898923
发行时间:2006-07-10
资源格式:WAV
采样精度:16bit
采样频率:44.1kHz

专辑介绍:
国乐王者之巅峰巨作;名曲荟萃、脍炙人口,集众乐器名家之大成。
       
史无前例的国乐盛会,曲目人所共识。专辑源于十五年前珍贵的模拟录音,母带现经德国重新处理,务求重现一代宗师黄金演奏的恢宏气度和神采韵致。集合了各种试音用的元素,包括弹拨乐器,拉奏乐器和打击乐器,让一切活灵活现,是百年难得一见的巅峰之作,绝对令音乐发烧友叹为“听”止。
这是中国十二位著名国乐演奏大师在广州共聚一堂,百年难得的一次录音在广东迎宾馆的广州新时代影音公司录音棚中进行。由录音大师陈珞、尚东亲自操刀,动用顶班器材进行录音,那绝佳的平衡度,自然的空间感和叹为观止的音色,其音效之佳简直惊为天人。
先听首李炜的《平湖秋月》,已令人拍案叫绝,拾多条筝弦在筝王的手下操控自如,听着如置身皓月当空、波光粼粼之人间美景,其精妙之处难以言表。第二首由琵琶大师梅林演奏的《十面埋伏》,静则如危机四伏、虎视眈眈,动则如千军万马、激昂悲壮、气势如虹、时缓时急,尽显妙在巅峰之功架。
再听由华夏鼓王安志顺领衔演奏的《老虎磨牙》,时而张牙舞爪,时而翻滚嬉戏,尽显堂堂威武。陈雷激的古琴纯朴自然,音色深沉而稳重,《广陵散》的意境用十指发挥得淋漓尽致,每个音的处理都极有内涵。
尚有闵大师的《赛马》,那随心所欲的走指及行弓及神推鬼助之录音配合得出神入化。尚有笛子、二胡、琵琶、古琴、古筝等十二位国乐王者在这辑《盛典》中倾力演出,这些旨在其艺术生命于巅峰时期之结晶,真不愧为国乐专辑的镇山之宝。
               
曲目列表:

01. 平湖秋月 - 李炜(古筝)
02. 十面埋伏 - 梅林(琵琶)
03. 幽兰逢春 - 董秋明(笛子)
04. 老虎磨牙 - 安志顺(打击乐)
05. 空山鸟语 - 张锐(二胡)
06. 平沙落雁 - 龚一(古琴)
07. 战台风 - 苏巧筝(古筝)
08. 春江花月夜 - 刘德海(琵琶)
09. 滚核桃 - 杨茹文(打击乐)
10. 烛影摇红 - 张锐(二胡)
11. 广陵散 - 陈雷激(古琴)
12. 高山流水 - 赵登山(古筝)
13.赛马 - 闵惠芬(二胡)


声明:本资源仅供学习、交流,请勿用于商业行为!

下载地址:https://pan.baidu.com/s/1gKPyFkfenOGPdTUGmw9_1Q    解压密码:AMINQUAN
游客,如果您要查看本帖隐藏内容请回复,如果您想免回复、免金币,直接查看内容,请开通炫音VIP

评分

参与人数 2音符 +25 炫币 +25 收起 理由
樱樱 + 5 + 5 炫音因你而精彩!
kamusyy + 20 赞一个!

查看全部评分

 楼主| 发表于 2019-3-25 22:27:19 | 显示全部楼层
Exact Audio Copy V1.3 from 2. September 2016

EAC 抓取日志文件从24. 三月 2019, 19:39

群星 / 盛典

使用驱动器  :MATSHITADVD-RAM UJ8C0   Adapter: 1  ID: 0

读取模式      : 可靠Secure
使用精确流     : 是
清空音频缓存    : 否
使用 C2 指示器 : 否

读取偏移校正:               : 103
读取 Lead-In 和 Lead-Out : 否
用静音填充抓取中丢失偏移的采样       : 是
去除首尾静音块               : 否
在CRC 计算中使用了空样本       : 是
已用接口                  : Win NT 及 2000 本地 Win32 接口

所用输出模式: : 内部 WAV 函数
样本格式    : 44.100 Hz; 16 Bit; 立体声


已抓取 CD 的 TOC

     音轨 |    起始    |    长度    |  起始扇区  |  结束扇区  
    --------------------------------------------
      1 |  0:00.00 |  4:07.67 |      0 |  18591
      2 |  4:07.67 |  7:12.54 |  18592 |  51045
      3 | 11:20.46 |  5:11.10 |  51046 |  74380
      4 | 16:31.56 |  3:31.15 |  74381 |  90220
      5 | 20:02.71 |  3:02.58 |  90221 | 103928
      6 | 23:05.54 |  7:36.30 | 103929 | 138158
      7 | 30:42.09 |  4:45.56 | 138159 | 159589
      8 | 35:27.65 |  9:30.26 | 159590 | 202365
      9 | 44:58.16 |  4:04.59 | 202366 | 220724
     10 | 49:03.00 |  4:17.18 | 220725 | 240017
     11 | 53:20.18 |  4:13.21 | 240018 | 259013
     12 | 57:33.39 |  5:46.66 | 259014 | 285029
     13 | 63:20.30 |  1:38.40 | 285030 | 292419


范围状态及错误

已选择范围

     文件名 J:\Audio CD\盛典\群星 - 盛典.wav

     峰值电平 100.0 %
     抓取速度 6.9 X
     范围质量 100.0 %
     复制 CRC 03DD8B12
     复制成功

没有错误发生


AccurateRip 摘要

音轨  1  精确地校准抓取  1)  [9D781748]  (AR v2)
音轨  2  精确地校准抓取  1)  [76CBBF40]  (AR v2)
音轨  3  精确地校准抓取  1)  [CF293E28]  (AR v2)
音轨  4  精确地校准抓取  1)  [CEF15E74]  (AR v2)
音轨  5  精确地校准抓取  1)  [2CE9AA62]  (AR v2)
音轨  6  精确地校准抓取  1)  [C13BC13D]  (AR v2)
音轨  7  精确地校准抓取  1)  [5B70BC65]  (AR v2)
音轨  8  精确地校准抓取  1)  [D8F7E707]  (AR v2)
音轨  9  精确地校准抓取  1)  [C1D84731]  (AR v2)
音轨 10  精确地校准抓取  1)  [449CD16F]  (AR v2)
音轨 11  精确地校准抓取  1)  [815F6A1E]  (AR v2)
音轨 12  精确地校准抓取  1)  [238B3219]  (AR v2)
音轨 13  精确地校准抓取  1)  [B6AF8AED]  (AR v2)

所有音轨精确校准抓取

状态报告结尾

---- CUETools DB Plugin V2.1.6

[CTDB TOCID: wvPjWRgjb57HmEjkgans82EfWlw-] found
Submit result: wvPjWRgjb57HmEjkgans82EfWlw- has been confirmed
Track | CTDB Status
  1   | (6/6) Accurately ripped
  2   | (6/6) Accurately ripped
  3   | (6/6) Accurately ripped
  4   | (6/6) Accurately ripped
  5   | (6/6) Accurately ripped
  6   | (6/6) Accurately ripped
  7   | (6/6) Accurately ripped
  8   | (6/6) Accurately ripped
  9   | (6/6) Accurately ripped
10   | (6/6) Accurately ripped
11   | (6/6) Accurately ripped
12   | (6/6) Accurately ripped
13   | (6/6) Accurately ripped

回复 支持 反对

使用道具 举报

发表于 2019-3-26 09:51:16 | 显示全部楼层
谢谢楼主分享!
回复 支持 反对

使用道具 举报

发表于 2019-3-26 12:18:26 | 显示全部楼层
谢谢楼主分享盛典 - 国乐王者之巅峰巨作
回复 支持 反对

使用道具 举报

发表于 2019-3-26 12:28:36 | 显示全部楼层
感谢分享国乐。
回复 支持 反对

使用道具 举报

发表于 2019-3-26 12:38:06 | 显示全部楼层
应该算是民族音乐的鸿篇巨制,相信会有好多网友喜欢,下载收藏。
回复 支持 反对

使用道具 举报

发表于 2019-3-26 13:12:34 | 显示全部楼层
都是名家的拿手作品,比较少见。谢谢分享!
回复 支持 反对

使用道具 举报

发表于 2019-3-26 15:16:27 | 显示全部楼层
谢谢楼主分享的民乐盛典!
回复 支持 反对

使用道具 举报

发表于 2019-3-26 17:52:15 | 显示全部楼层
感谢分享国乐。
回复 支持 反对

使用道具 举报

发表于 2019-3-27 10:25:28 | 显示全部楼层
谢谢分享好音乐
回复 支持 反对

使用道具 举报

发表于 2019-3-27 12:58:38 | 显示全部楼层
曲目经典,值得收藏!感谢楼主分享!
回复 支持 反对

使用道具 举报

发表于 2019-3-27 17:08:42 | 显示全部楼层
谢谢楼主分享的民乐
回复 支持 反对

使用道具 举报

发表于 2019-3-27 20:13:54 | 显示全部楼层
谢谢楼主分享!
回复 支持 反对

使用道具 举报

发表于 2019-3-28 12:53:29 | 显示全部楼层

炫音恭祝您身体健康天天快乐



回复 支持 反对

使用道具 举报

发表于 2019-3-31 07:25:47 | 显示全部楼层
江山依旧,人事已非。难得经典!
回复 支持 反对

使用道具 举报

您需要登录后才可以回帖 登录 | 立即注册

本版积分规则

手机版|炫音音乐论坛 ( 皖ICP备13017420号-3 )皖公网安备 34082502000069号

GMT+8, 2019-5-22 06:39 , Processed in 0.082545 second(s), 26 queries , Gzip On.

Powered by Discuz! X3.4

© 2004-2017 炫音音乐论坛

快速回复 返回顶部 返回列表