查看: 102|回复: 4

[其他] 《经典电影音乐100首》(100 Film Classics) [5 CD][FLAC]完整版

[复制链接]
发表于 2019-6-21 07:23:45 | 显示全部楼层 |阅读模式
本帖最后由 yqzx 于 2019-6-21 07:24 编辑

《经典电影音乐100首》(100 Film Classics) [5 CD][FLAC]完整版

经典电影音乐100首是集合了多部经典电影的音乐专辑,包括了很多电影的原声带等,共5CD,都是完整的FLAC格式,共2.1G大小,喜欢听电影原音乐的欢迎下载。

专辑介绍:
电影音乐是电影的重要组成部分,是对电影的詮释纽带,一首好的电影音乐,对整个影片起著至关重要的作用。通常一部电影会由多首音乐相衬,以更好的衬托齣电影需要表现的内容。
电影音乐是在影片中体现影片艺术构思的音乐,是电影综合艺术的有机组成部分。它在突出影片的抒情性、戏剧性和气氛方面起著特殊作用。电影音乐已经成为一种新的现代音乐体裁。
性质与特点 电影成为综合艺术之后,音乐虽然仍保持著本身所具有的艺术表现的特殊性。如擅长抒情、不擅长叙事、需要听觉来感受、需要时间的过程展现形像、通过演奏和演唱的再创作才能欣赏,但是,在表现的方式上却发生了相应的变化:
①音乐构思须根据电影的题材内容、风格样式、人物性格及导演的艺术总体构思,使音乐的听觉形像与画面的视觉形像相融合,体现综合性的美学原则。除神话片、童话片、科学幻想片以及现代的实验性的电影以外,电影中的人物造型、表情、动作、语言、环境气氛等,大都是接近现实生活的自然形态。因而,电影音乐也不象一般供音乐会上演出的纯器乐曲和舞台演出的歌剧音乐、舞剧音乐那么夸张和程式化。
②音乐常常与对话、自然音响效果相结合。在无声电影时期,有时音乐是唯一的声音,从头至尾贯串全片。由於录音技术的进步,进入有声电影时期,除音乐之外,还可以录制语言和自然音响效果,解脱了在无声电影时期音乐超负荷的现象。导演和作曲家从电影的真正需要出发,只有在表现抒情性、戏剧性气氛的时候才恰当地、有效地使用音乐。这样,既符合音乐的艺术规律,又提高了电影综合艺术的美学功能。这使音乐真正地发展成为电影综合艺术的重要的有机组成部分,对电影音乐形成分段陈述的结构,也有促进作用。
现实性与功能性 电影音乐,按照在电影中出现的方式,分为两大类:一类是现实性的音乐,也叫做客观的音乐,这类音乐在画面上有声音的来源;另一类是功能性的音乐,也叫做主观的音乐,这类音乐在画面上没有声音的来源。
现实性音乐包括在电影生活场景中出现的各种音乐(或歌曲)。例如在音乐会上表演的音乐(或歌曲)、歌剧音乐、舞剧音乐、节日歌舞、街头小唱、街头音乐以及通过收音机或录音机播放的音乐。还包括特别引人注目的剧中主要人物的独唱与对唱、独奏与合奏等等。这类音乐(或歌曲)都是由剧作家、导演事先在文学剧本和分镜头剧本中安排的。
功能性音乐一般是由作曲家专为电影创作的,著重表现画面中所没有或不能表现的剧中主要人物的动作,特别是心理活动。
在电影中,虽然从音乐出现的方式上分为两种类型,但在实际的运用上常常相互转化,有时从现实性的音乐转化为功能性的音乐,也有时从功能性的音乐转化为现实性的音乐。
电影音乐艺术的处理手法丰富多样,变化无穷。其美学功能是:
①通过音乐主题的贯串发展、矛盾衝突、高潮布局,达到对剧中主要人物的歌颂或批判,帮助明确电影的意义。
②用音乐加强人物的动作性、心理活动,揭示人物的思想感情,表现人物的精神面貌,使人物的形像更加鲜明动人。
③暗示剧情的进展或延伸。这样的音乐,有时先於画面的视觉形像出现,例如在困难的时刻预示胜利和希望,在顺利的时刻预示艰苦挫折;有时后於画面视觉形像出现,延展戏剧情绪。
④引起一定时间(古代的或现代的)、空间(人类世界的或外空间)、环境(人间或仙境)的联想。
⑤加强影片的总的艺术结构。电影音乐虽然是分段陈述的,但是通过分段陈述的结构,能反映出影片总的艺术结构。
⑥增加立体感。人类习惯於从视觉和听觉两方面感受客观事物。结合音乐的听觉形像,音乐旋律的起伏,和声、对位的织体,色彩丰富的配器等等,能更有效地表现听觉形像的立体感。音画结合可形成「四维时空」的运动著的立体感。
音乐与画面相结合的方式 音乐与画面相结合的方式主要有两种:乐画平行和乐画对位。
乐画平行,是音乐与画面表现著同样的节奏、速度、情绪、意境和倾向。常常用在抒情时以进一步渲染情绪,或是用在戏剧性的情节中以加强矛盾衝突的紧张度。
乐画对位,是音乐与画面表现著不同的或相反的节奏、速度、情绪、意境和倾向。乐画对位,使音乐与画面相反相成,对立统一,可以反映生活的复杂性、多面性,更有力地揭示生活的本质,产生具有深刻内涵的艺术形像。
音乐与画面相结合,较多的时侯是画面起决定作用。当音乐起决定作用时,导演在构思的开始就和作曲家合作,採用音乐先期录音然后根据音乐拍摄画面的方法。例如爱森斯坦是根据 С.С.普罗科菲耶夫的音乐拍摄影片《亚历山大·涅夫斯基》中冰湖大战画面的。特别是音乐片(歌剧片、舞剧片、歌舞片、戏曲片),音乐起著更加主动的作用。
音乐的材料、主题与曲式结构 电影艺术拥有文学、艺术和科技的丰富表现手段,能够表现天上地下、古往今来、童话神话、科学幻想等等各种题材。电影音乐材料使用的范围也是非常广阔的,可以用民间音乐、古典音乐或通俗音乐,也可以通过电子合成器和电子计算机的数码程序创造新的音乐音响,还可以完全由噪音构成具体音乐。所有已经在音乐艺术中使用了的材料,在电影音乐中都可以使用,而且在必要时还可以创造未用过的新音响。自然音响效果和具体音乐都是用噪音构成的,区别在於前者模拟现实生活中的自然音响,如枪炮声、风雨声、脚步声等等,逼真地再现真实生活的音响,增加真实感和立体感,后者则是经过作曲家,或作曲家与录音师合作,对自然音响效果进行艺术加工(包括音响的音区音色变化,节奏速度的变化以及多层次、多色彩、多节奏的组合等等),提高噪音的艺术表现力。具体音乐在电影的发展中越来越多地代替了用音乐作效果的音响,特别是在惊险片和打斗片中。
音乐主题是音乐曲式的基础,是体现音乐形像的核心。音乐主题经过一定的音乐曲式的发展,完成音乐形像。音乐主题通常是用少数几个乐音构成的短小的动机或由稍多的乐音构成的旋律。L.van贝多芬和 F.李斯特都曾在作品中使用过贯串发展的动机。到了R.瓦格纳,更进一步在歌剧中使用了主导动机,一个人物、一件事物、一个意念都用一个音乐形像鲜明的主导动机,在歌剧中贯穿发展,取得了良好的艺术效果。这影响了电影音乐,有不少的作曲家在电影音乐创作中使用了主导动机,也获得了成功。在电影音乐中所使用的主导动机,大多数是由乐音构成的,在个别影片中,也使用了由噪音构成的主导动机。
但是,在使用主导动机和音乐曲式上,作曲家之间的意见有分歧。
美国作曲家M.斯坦纳认为:在电影音乐中,每个主要剧中人物都应该有一个主导动机作为音乐主题,每当剧中人物出现需要音乐的时候,加以变奏处理,可以使音乐加强原来银幕上所没有的东西;主导动机便於观眾理解,可以在最短的时间内展示形像,利用有特色的乐器的色彩增加吸引力,达到刻画人物性格的目的。德国作曲家H.艾斯勒则认为:使用主导动机,优点是能够帮助作曲家的音乐作品获得最高水平的统一,缺点是主导动机需要有长大的曲式来发展,而电影音乐不提供这样的可能性。苏联作曲家切列穆欣认为:主导动机可以依靠音乐形像的概括力,把某一个戏剧情境体现出来,并且使其逐步发展;最后主导动机还可以作为一个作品基本思想的体现者。
主导动机是音乐主题中起著贯串作用的一种重要的表现手段,但是并非唯一的类型。在电影音乐中,也採用其他类型的音乐主题,有时甚至不用音乐主题(无主题音乐),而用短小不相关联的「西昆斯」(乐段),视具体影片的题材内容、风格样式而定。
在电影音乐创作中,关於使用主导动机的分歧意见也涉及到曲式问题。主张使用主导动机的作曲家认为,在电影音乐创作中,各种曲式(从二部曲式直到主题与变奏、迴旋曲式、奏鸣曲式)都可以运用。美国音乐理论家R.M.普伦德加斯特对一些电影音乐的总谱进行了调查研究,举出大量谱例证明。上述各种曲式都有作曲家用过,而且取得了良好的艺术效果。不过,电影音乐的曲式不象一般曲式那么严谨。不能用传统的观念去看电影音乐的曲式。
H.艾斯勒主张电影音乐的形式是短小的、片断性的「西昆斯」。但是,他也曾根据银幕上提供的可能性,在写电影音乐的「西昆斯」时,将十二音体系用於古典曲式。
音乐的曲式是一个发展著的概念,不同的历史时期、不同的乐派,对於曲式的看法有差异,有发展。在电影音乐中,不同的题材、体裁、风格、样式的影片对曲式的要求和提供的可能性是很广阔的。电影音乐是一种新的音乐体裁,在曲式上既有继承性,又有创新性,须具体分析一部影片的基础,採取不同的处理方式。每个国家的民族还有丰富的民间曲式,也都有可能用在电影音乐的创作中。
电影歌曲 是诗与音乐的结晶。既能概括具体的深刻的思想,又能传达丰富的真挚的感情。人声结合著乐器,可以增强美的感染力。在电影中,歌曲的听觉形像与画面的视觉形像融为一体,强烈地感染著观眾。电影歌曲是电影音乐中最富有艺术魅力的部分。因为电影歌曲具有巨大的美学的意义,所以如果滥用也会造成明显的反效果,或者歪曲剧中人物的精神面貌和心理状态,或者使戏剧情节发展中断,阻碍戏剧矛盾衝突的顺利开展。
在电影艺术中,对电影歌曲的艺术处理有两种:有声音来源的画内处理和无声音来源的画外处理。现实性与功能性相结合、处於前景地位、由剧中主要人物亲自唱出的歌曲,起著更重要的美学作用,更吸引观眾的注意力,更能与观眾交流思想感情,给观眾深刻的印象。这类电影歌曲,用在戏剧情节发展迫切需要的地方、剧中主要人物感情最激动的时候或感情转折的关键时刻。无声音来源的画外音出现的电影歌曲,有时代表电影剧作家、导演对於影片主题思想的阐述、对剧中人物的批评或颂扬,有时代表剧中主要人物的内心独白,有时作为「帮腔」,集中地复述剧中主要人物的不平常遭遇,以加强印象。还有一种重要的艺术处理,是把电影歌曲作为主题歌,多次出现,贯串全剧。主题歌可以每次都由剧中主要人物亲自演唱,也可以採用无声音来源的画外音,以引起剧中人物或观眾的回忆。在电影歌曲的运用中,有时为了表现环境的时代特徵和民族特徵,引用现成的民歌、说唱、艺术歌曲、通俗歌曲作背景。用电影歌曲连结一组不同时间、不同地点但有内在联繫的画面,以起加强电影艺术结构的作用,也是常用的艺术手法。
录音工艺处理 一般音乐,经过演奏、演唱就可以欣赏了。而电影音乐,在进入有声电影时期之后,还得经过录音。由於录音技术的发达,丰富了音乐的表现功能和手段。电影音乐经过录音,能够象电影画面中的特写镜头那样强调某种乐器(或某组乐器);能够调剂每件乐器的共鸣,加强合奏合唱的融合度和平衡;能够改变乐器(或人声)的音质和音色,使音乐更加吻合人物性格;能够调剂音量的强弱,适应各种的空间感;能够用电子合成器和电子计算机创制新的音响、新的音色(见电影录音、音乐录音)。
民族风格 音乐的民族风格不是一成不变的模式。它既是由一个民族长期的风俗习惯、精神气质、语言体系、审美趣味、哲学思想形成的,有一定的凝聚性;又随著历史的前进、各国人民之间的友好往来和文化交流在不断地丰富和发展,它表现著不同时代的民族的不同的人物和环境。由於不同作曲家的美学思想和审美趣味的差异,电影音乐民族风格的具体体现是多样的。现代电影的题材、样式繁多,有些科学幻想片,如《星球大战》、《超人》、《外星人》,需要表现外空间的气氛,创作出能够引起观眾对外空间联想的音乐。外空间不属於地球上的民族,表现民族风格比较困难。但不同国家、民族的作曲家,在创作表现外空间的电影音乐时,也有可能带有各自的民族风格。
纪录片、科教片、美术片的音乐 美术片的人物造型风格化,动作夸张,性格突出,适合用音乐手段表现。环境经过美化,具有诗情画意,衬託人物或拟人化动物,也有助於音乐的表现。美术片音乐,大都是先期录制的,保持了音乐的主动性和艺术结构的完整性。在录音之前,导演与作曲家反覆研究,交流创作意图,深入理解影片的主题思想和风格样式,认识趋向一致,构思逐渐成熟,然后进行音乐创作。
科学教育片以普及科学教育为目的。一部影片一个单元。它的音乐,往往乐段较少,时间较长,音乐以说明性、描写性为主,而且常常处於解说词背景的地位。
纪录片的特点是纪实性:纪录真人、真事、真史实、真环境。纪录片的音乐,基本上用现实生活中的音乐,例如典礼性的音乐或歌曲(国歌、军歌等)、游行队伍的进行曲、体育??,例如表现战争的纪录片的音乐,则可能将交响性的音乐与自然音响效果相交织,以强调战斗气氛;表现自然景色、文物古迹的风光文物的纪录片,也可能用上相应的由作曲家创作的优美抒情的音乐。
专辑曲目:

Disc 1:

01. Jevetta Steele - Calling You (05:21)
02. Judy Garland - Over the Rainbow (02:50)
03. Michelle Pfeiffer - Makin' Whoopee (03:10)
04. The Righteous Brothers - Unchained Melody (03:37)
05. Gustavo Santaolalla - Brokeback Mountain 2 (01:58)
06. Ry Cooder - Paris, Texas (02:54)
07. Ennio Morricone - The Man With the Harmonica (03:26)
08. Anton Karas - Harry Lime Theme (02:14)
09. Nino Rota - The Godfather Waltz (03:07)
10. Miles Davis - Nuit sur les Champs-élysées (02:55)
11. Yann Tiersen - La valse d'Amélie (02:00)
12. Henry Mancini - Moon River (02:41)
13. Simon & Garfunkel - Mrs. Robinson (03:50)
14. Badly Drawn Boy - Silent Sigh (03:56)
15. Buena Vista Social Club - Repilado: Chan Chan (04:17)
16. Chakachas - Jungle Fever (04:22)
17. Quincy Jones and His Orchestra - Soul Bossa Nova (02:42)
18. Ryuichi Sakamoto & David Sylvian - Forbidden Colors (04:34)
19. Air - Playground Love (03:30)
20. Thomas Newman - Dead Already (03:19)

Disc 2:

01. John Barry - James Bond Theme (01:46)
02. Henry Mancini & His Orchestra - The Pink Panther Theme (02:38)
03. John Murphy & David Hughes - Zorba the Greek (02:57)
04. Gheorghe Zamfir - The Lonely Sheperd (04:21)
05. Ennio Morricone - The Good, the Bad and the Ugly (02:36)
06. Maurice Jarre - Lara's Theme (03:16)
07. Francis Lai - Theme From Love Story (03:19)
08. Percy Sledge - When a Man Loves a Woman (02:49)
09. The Beach Boys - God Only Knows (02:53)
10. Roy Orbison - In Dreams (02:49)
11. Philip Glass - Koyaanisqatsi (03:29)
12. Jocelyn Pook - Masked Ball (03:41)
13. Sonny Rollins - Alfie's Theme Differently (03:45)
14. BBC Symphony Orchestra - The Bridge on the River Kwai: Colonel Bogey (04:14)
15. George Chakiris - America (05:00)
16. Thomas Newman - Any Other Name (04:06)
17. Gustavo Santaolalla - Deportation / Iguazu (04:51)
18. Hans Zimmer - Still (04:47)
19. John Barry - Out of Africa, 'Main Title' (I Had a Farm in Africa) (03:11)
20. Hans Zimmer & Lisa Gerrard - Now We Are Free (04:12)

Disc 3:

01. Richard Strauss - Prelude (From 'Also Sprach Zarathustra') (01:41)
02. Richard Wagner - Walkurenritt (From 'Die walkure') (04:51)
03. Carl Orff - O Fortuna / Fortune plango vulnera (From 'Carmina Burana') (05:04)
04. Johann Sebastian Bach - Toccata (From 'Toccata and Fugue in D Minor, BWV 565) (02:56)
05. Johann Strauss II - An der sch?nen blauen donau, Op. 314 (09:02)
06. Ludwig van Beethoven - Bagatelle in a Minor ('Für Elise'), 'Poco Moto' (03:59)
07. Wolfgang Amadeus Mozart - Clarinet Concerto in A (K. 622), 'Adagio' (02:44)
08. Alexandre Desplat - Griet's Theme (04:06)
09. Ennio Morricone - Gabriel's Oboe (Theme From 'the Mission') (02:11)
10. James Horner - Braveheart 'Main Title' (02:49)
11. Sergei Rachmaninov - The Rach. 3 (Part One) (04:19)
12. Claude Debussy - Clair de lune (From 'Suite bergamasque') (04:59)
13. Giacomo Puccini - O mio babbino caro (From 'Gianni Schicchi') (02:36)
14. Pietro Mascagni - Intermezzo sinfonico (From 'Cavalleria rusticana') (04:15)
15. Ludwig van Beethoven - Piano Sonata, No. 8 C Minor, Op. 13, 'Pathétique' (Birdy's Pathétique) (01:14)
16. Michael Nyman - The Promise (From 'the Piano') (04:15)
17. Gabriel Fauré - Requiem, Op. 48 (Pie Jesu) (03:26)
18. Wolfgang Amadeus Mozart - Lacrimosa (From Requiem in D Minor, K. 626) (03:34)
19. John Williams - Theme From 'Schindler's List' (04:13)
20. Samuel Barber - Adagio for Strings, Op. 11 (07:24)

Disc 4:

01. Steppenwolf - Born to Be Wild (03:36)
02. Thin Lizzy - Whisky in the Jar (05:43)
03. Lynyrd Skynyrd - Sweet Home Alabama (04:43)
04. Stealers Wheel - Stuck in the Middle With You (03:24)
05. Jefferson Airplane - White Rabbit (02:33)
06. Dusty Springfield - Son of a Preacher Man (02:27)
07. Joe Cocker - You Can Leave Your Hat On (04:13)
08. Bill Withers - Who Is He (And What Is He to You)? (03:11)
09. Booker T. & The MG's - Green Onions (02:14)
10. Isaac Hayes - Theme From Shaft (04:35)
11. The Temptations - Papa Was a Rollin' Stone (06:41)
12. Marvin Gaye - Let's Get It On (04:03)
13. The Commitments - Try a Little Tenderness (04:31)
14. Johnny Cash - I Walk the Line (02:31)
15. The Mamas & the Papas - California Dreamin' (02:40)
16. Brenda Lee - I'm Sorry (02:38)
17. Phil Phillips - Sea of Love (02:21)
18. Joe Cocker & Jennifer Warnes - Up Where We Belong (03:53)
19. Bill Withers - Ain't No Sunshine (02:03)
20. Louis Armstrong - What a Wonderful World (02:17)

Disc 5:

01. Simple Minds - Don't You (Forget About Me) (04:19)
02. The Cardigans - Lovefool (03:15)
03. The Roots - The Seed (2.0) (04:11)
04. Nina Simone vs. Felix the Housecat - Sinnerman (04:35)
05. Magnus - Summer's Here (04:19)
06. Serge Gainsbourg - Good Bye Emmanuelle (03:20)
07. Marianne Faithfull - The Ballad of Lucy Jordan (04:06)
08. Jon & Vangelis - State of Independence (05:01)
09. Gabrielle - Out of Reach (03:16)
10. Wet Wet Wet - Love Is All Around (03:49)
11. Ronan Keating - When You Say Nothing at All (04:13)
12. Jamie Cullum - Everlasting Love (03:20)
13. Hot Chocolate - You Sexy Thing (03:40)
14. Dusty Springfield - Spooky (02:37)
15. Bill Medley & Jennifer Warnes - (I've Had) The Time of My Live (04:44)
16. Yvonne Elliman - If I Can't Have You (02:58)
17. Elton John - Tiny Dancer (06:15)
18. Lee Marvin - Wand'rin' Star (04:29)
19. Monty Python - Always Look on the Bright Side of Life (03:32)
20. Gene Kelly - Singin' in the Rain (02:43)

Exact Audio Copy V0.99 prebeta 4 from 23. January 2008

EAC extraction logfile from 21. September 2010, 19:46

Various / 100 Film Classics (disc 1)

Used drive  : PIONEER DVD RW  DVR-106D   Adapter: 1  ID: 1

Read mode               : Secure
Utilize accurate stream : Yes
Defeat audio cache      : Yes
Make use of C2 pointers : No

Read offset correction                      : 48
Overread into Lead-In and Lead-Out          : No
Fill up missing offset samples with silence : Yes
Delete leading and trailing silent blocks   : No
Null samples used in CRC calculations       : Yes
Used interface                              : Native Win32 interface for Win NT & 2000
Gap handling                                : Appended to previous track

Used output format              : User Defined Encoder
Selected bitrate                : 320 kBit/s
Quality                         : High
Add ID3 tag                     : No
Command line compressor         : C:\Program Files (x86)\Exact Audio Copy\Flac\flac.exe
Additional command line options : -V -8 -T "artist=%a" -T "title=%t" -T "album=%g" -T "date=%y" -T "tracknumber=%n" -T "genre=%m" %s  


TOC of the extracted CD

     Track |   Start  |  Length  | Start sector | End sector
    ---------------------------------------------------------
        1  |  0:00.00 |  5:21.50 |         0    |    24124   
        2  |  5:21.50 |  2:50.04 |     24125    |    36878   
        3  |  8:11.54 |  3:10.12 |     36879    |    51140   
        4  | 11:21.66 |  3:37.09 |     51141    |    67424   
        5  | 14:59.00 |  1:58.72 |     67425    |    76346   
        6  | 16:57.72 |  2:54.60 |     76347    |    89456   
        7  | 19:52.57 |  3:26.33 |     89457    |   104939   
        8  | 23:19.15 |  2:14.36 |    104940    |   115025   
        9  | 25:33.51 |  3:07.45 |    115026    |   129095   
       10  | 28:41.21 |  2:55.49 |    129096    |   142269   
       11  | 31:36.70 |  2:00.05 |    142270    |   151274   
       12  | 33:37.00 |  2:41.16 |    151275    |   163365   
       13  | 36:18.16 |  3:50.57 |    163366    |   180672   
       14  | 40:08.73 |  3:56.69 |    180673    |   198441   
       15  | 44:05.67 |  4:17.11 |    198442    |   217727   
       16  | 48:23.03 |  4:22.12 |    217728    |   237389   
       17  | 52:45.15 |  2:42.69 |    237390    |   249608   
       18  | 55:28.09 |  4:34.44 |    249609    |   270202   
       19  | 60:02.53 |  3:30.04 |    270203    |   285956   
       20  | 63:32.57 |  3:19.16 |    285957    |   300897   


Track  1

     Filename C:\EACrips\100 Film Classics (disc 1) - 2007\01 - Jevetta Steele - Calling You.wav

     Pre-gap length  0:00:02.00

     Peak level 100.0 %
     Track quality 100.0 %
     Test CRC 81D4B6D2
     Copy CRC 81D4B6D2
     Accurately ripped (confidence 1)  [9570C6DF]
     Copy OK

Track  2

     Filename C:\EACrips\100 Film Classics (disc 1) - 2007\02 - Judy Garland - Over the Rainbow.wav

     Peak level 100.0 %
     Track quality 100.0 %
     Test CRC 3324C51F
     Copy CRC 3324C51F
     Accurately ripped (confidence 1)  [0493A04F]
     Copy OK

Track  3

     Filename C:\EACrips\100 Film Classics (disc 1) - 2007\03 - Michelle Pfeiffer - Makin' Whoopee.wav

     Pre-gap length  0:00:02.28

     Peak level 99.9 %
     Track quality 100.0 %
     Test CRC C9DB70A4
     Copy CRC C9DB70A4
     Accurately ripped (confidence 1)  [ED49AA8A]
     Copy OK

Track  4

     Filename C:\EACrips\100 Film Classics (disc 1) - 2007\04 - The Righteous Brothers - Unchained Melody.wav

     Peak level 99.9 %
     Track quality 100.0 %
     Test CRC 5A57E7CF
     Copy CRC 5A57E7CF
     Accurately ripped (confidence 1)  [77712197]
     Copy OK

Track  5

     Filename C:\EACrips\100 Film Classics (disc 1) - 2007\05 - Gustavo Santaolalla - Brokeback Mountain 2.wav

     Pre-gap length  0:00:01.90

     Peak level 89.1 %
     Track quality 100.0 %
     Test CRC B548CF71
     Copy CRC B548CF71
     Accurately ripped (confidence 1)  [657C89AE]
     Copy OK

Track  6

     Filename C:\EACrips\100 Film Classics (disc 1) - 2007\06 - Ry Cooder - Paris, Texas.wav

     Pre-gap length  0:00:01.81

     Peak level 94.3 %
     Track quality 100.0 %
     Test CRC 62E96AC8
     Copy CRC 62E96AC8
     Accurately ripped (confidence 1)  [97524B55]
     Copy OK

Track  7

     Filename C:\EACrips\100 Film Classics (disc 1) - 2007\07 - Ennio Morricone - The Man With the Harmonica.wav

     Peak level 99.9 %
     Track quality 100.0 %
     Test CRC 74CDDFE7
     Copy CRC 74CDDFE7
     Accurately ripped (confidence 1)  [E22C1E8F]
     Copy OK

Track  8

     Filename C:\EACrips\100 Film Classics (disc 1) - 2007\08 - Anton Karas - Harry Lime Theme.wav

     Peak level 99.9 %
     Track quality 99.9 %
     Test CRC E2D557CA
     Copy CRC E2D557CA
     Accurately ripped (confidence 1)  [7B9992CC]
     Copy OK

Track  9

     Filename C:\EACrips\100 Film Classics (disc 1) - 2007\09 - Nino Rota - The Godfather Waltz.wav

     Pre-gap length  0:00:02.37

     Peak level 100.0 %
     Track quality 99.9 %
     Test CRC 462FC41E
     Copy CRC 462FC41E
     Accurately ripped (confidence 1)  [59F8EB69]
     Copy OK

Track 10

     Filename C:\EACrips\100 Film Classics (disc 1) - 2007\10 - Miles Davis - Nuit sur les Champs-蒷ys閑s.wav

     Pre-gap length  0:00:01.54

     Peak level 94.2 %
     Track quality 99.9 %
     Test CRC 65B69588
     Copy CRC 65B69588
     Accurately ripped (confidence 1)  [4A8E78AB]
     Copy OK

Track 11

     Filename C:\EACrips\100 Film Classics (disc 1) - 2007\11 - Yann Tiersen - La valse d'Am閘ie.wav

     Pre-gap length  0:00:01.16

     Peak level 72.4 %
     Track quality 100.0 %
     Test CRC D496FFE1
     Copy CRC D496FFE1
     Accurately ripped (confidence 1)  [B7E4C632]
     Copy OK

Track 12

     Filename C:\EACrips\100 Film Classics (disc 1) - 2007\12 - Henry Mancini - Moon River.wav

     Pre-gap length  0:00:00.01

     Peak level 94.3 %
     Track quality 100.0 %
     Test CRC FDF5D380
     Copy CRC FDF5D380
     Accurately ripped (confidence 1)  [6027738D]
     Copy OK

Track 13

     Filename C:\EACrips\100 Film Classics (disc 1) - 2007\13 - Simon & Garfunkel - Mrs. Robinson.wav

     Pre-gap length  0:00:00.85

     Peak level 100.0 %
     Track quality 99.9 %
     Test CRC D5CC9BEB
     Copy CRC D5CC9BEB
     Accurately ripped (confidence 1)  [5881E104]
     Copy OK

Track 14

     Filename C:\EACrips\100 Film Classics (disc 1) - 2007\14 - Badly Drawn Boy - Silent Sigh.wav

     Peak level 80.2 %
     Track quality 100.0 %
     Test CRC B9DF38F7
     Copy CRC B9DF38F7
     Accurately ripped (confidence 1)  [202A4161]
     Copy OK

Track 15

     Filename C:\EACrips\100 Film Classics (disc 1) - 2007\15 - Buena Vista Social Club - Repilado- Chan Chan.wav

     Peak level 84.1 %
     Track quality 100.0 %
     Test CRC 432BA80D
     Copy CRC 432BA80D
     Accurately ripped (confidence 1)  [AA81C4B6]
     Copy OK

Track 16

     Filename C:\EACrips\100 Film Classics (disc 1) - 2007\16 - Chakachas - Jungle Fever.wav

     Peak level 83.4 %
     Track quality 100.0 %
     Test CRC 05ED1844
     Copy CRC 05ED1844
     Accurately ripped (confidence 1)  [EBB5C873]
     Copy OK

Track 17

     Filename C:\EACrips\100 Film Classics (disc 1) - 2007\17 - Quincy Jones and His Orchestra - Soul Bossa Nova.wav

     Peak level 100.0 %
     Track quality 100.0 %
     Test CRC 8FCC91CD
     Copy CRC 8FCC91CD
     Accurately ripped (confidence 1)  [40E30391]
     Copy OK

Track 18

     Filename C:\EACrips\100 Film Classics (disc 1) - 2007\18 - Ryuichi Sakamoto & David Sylvian - Forbidden Colors.wav

     Peak level 100.0 %
     Track quality 99.9 %
     Test CRC 541F4484
     Copy CRC 541F4484
     Accurately ripped (confidence 1)  [202BA958]
     Copy OK

Track 19

     Filename C:\EACrips\100 Film Classics (disc 1) - 2007\19 - Air - Playground Love.wav

     Peak level 92.4 %
     Track quality 100.0 %
     Test CRC FBE0439A
     Copy CRC FBE0439A
     Accurately ripped (confidence 1)  [A1017F87]
     Copy OK

Track 20

     Filename C:\EACrips\100 Film Classics (disc 1) - 2007\20 - Thomas Newman - Dead Already.wav

     Peak level 100.0 %
     Track quality 100.0 %
     Test CRC FD408CF7
     Copy CRC FD408CF7
     Accurately ripped (confidence 1)  [D2875229]
     Copy OK


All tracks accurately ripped

No errors occurred

End of status report


经典电影音乐100首是集合了多部经典电影的音乐专辑,包括了很多电影的原声带等,共5CD,都是完整的FLAC格式,共2.1G大小,喜欢听电影原音乐的欢迎下载。

软件特别说明

Various.Artists.-.[100.Film.Classics.(5.CD)].涓撹緫.(Flac)(ED2000.COM).rar (2.05 GB)

新建文本文档.rar

286 Bytes, 下载次数: 28

发表于 2019-6-21 13:17:14 | 显示全部楼层
谢谢分享集锦好碟!!
回复 支持 反对

使用道具 举报

发表于 2019-6-21 15:44:53 | 显示全部楼层
谢谢楼主分享好音乐
回复 支持 反对

使用道具 举报

发表于 2019-6-21 21:38:33 | 显示全部楼层
介绍很详细,谢谢分享合集
回复 支持 反对

使用道具 举报

您需要登录后才可以回帖 登录 | 立即注册

本版积分规则

手机版|炫音音乐论坛 ( 皖ICP备13017420号-3 )皖公网安备 34082502000069号

GMT+8, 2019-7-16 06:02 , Processed in 0.070734 second(s), 25 queries , Gzip On.

Powered by Discuz! X3.4

© 2004-2017 炫音音乐论坛

快速回复 返回顶部 返回列表