查看: 245|回复: 45

[分享] 【Classical】Ludovico Einaudi – Seven Days Walking (Day 4) (2019)[TR24][OF]

[复制链接]
发表于 2019-11-9 18:48:55 | 显示全部楼层 |阅读模式
1.jpg


Artist: Ludovico Einaudi
Title: Seven Days Walking (Day 4)
Year Of Release: 2019
Label: Decca
Genre: Classical
Quality: FLAC
Total Time: 00:47:08
Size: 673 MB

01 – Low Mist Var. 1 (Day 4)
02 – Cold Wind Var. 1 (Day 4)
03 – A Sense Of Symmetry (Day 4)    试听
04 – Gravity Var. 1 (Day 4)
05 – Fox Tracks (Day 4)
06 – Low Mist Var. 2 (Day 4)
07 – Campfire (Day 4)
08 – Cold Wind Var. 2 (Day 4)
09 – Matches (Day 4)
10 – View From The Other Side (Day 4)
11 – Full Moon (Day 4)
12 – Ascent (Day 4)





游客,如果您要查看本帖隐藏内容请回复,如果您想免回复、免金币,直接查看内容,请开通炫音VIP

评分

参与人数 3音符 +35 炫币 +35 收起 理由
雨欣 + 10 + 10 感谢分享!
kamusyy + 20 赞一个!

查看全部评分

 楼主| 发表于 2019-11-9 18:49:37 | 显示全部楼层
foobar2000 1.4 / Dynamic Range Meter 1.1.1

--------------------------------------------------------------------------------
Analyzed: Ludovico Einaudi / Seven Days Walking
--------------------------------------------------------------------------------

DR         Peak         RMS     Duration Track
--------------------------------------------------------------------------------
DR14     -10.36 dB   -28.40 dB      2:30 01-Einaudi: Low Mist Var. 1
DR13      -9.06 dB   -26.33 dB      3:28 02-Einaudi: Cold Wind Var. 1
DR12      -4.79 dB   -20.71 dB      2:36 03-Einaudi: A Sense Of Symmetry
DR14      -3.77 dB   -23.49 dB      5:29 04-Einaudi: Gravity Var. 1
DR13      -1.11 dB   -19.77 dB      3:39 05-Einaudi: Fox Tracks
DR13      -3.67 dB   -22.47 dB      5:16 06-Einaudi: Low Mist Var. 2
DR12      -3.00 dB   -20.50 dB      3:46 07-Einaudi: Campfire
DR10      -0.50 dB   -15.52 dB      5:15 08-Einaudi: Cold Wind Var. 2
DR15     -11.12 dB   -31.15 dB      2:45 09-Einaudi: Matches
DR12      -1.71 dB   -19.33 dB      4:24 10-Einaudi: View From The Other Side
DR13      -5.38 dB   -24.54 dB      3:04 11-Einaudi: Full Moon
DR12      -0.50 dB   -17.52 dB      5:03 12-Einaudi: Ascent
--------------------------------------------------------------------------------

Number of tracks:  12
Official DR value: DR13
Samplerate:        96000 Hz
Channels:          2
Bits per sample:   24
Bitrate:           2010 kbps
Codec:             FLAC
================================================================================

回复 支持 反对

使用道具 举报

发表于 2019-11-9 20:06:21 | 显示全部楼层
下载欣赏精品专辑,谢谢楼主提供分享
回复 支持 反对

使用道具 举报

发表于 2019-11-9 20:30:21 | 显示全部楼层
谢谢楼主分享
回复 支持 反对

使用道具 举报

发表于 2019-11-9 21:10:56 | 显示全部楼层
Ludovico Einaudi 七日行之四,谢谢楼主持续分享!
回复 支持 反对

使用道具 举报

发表于 2019-11-10 05:29:50 | 显示全部楼层
谢谢分享,加油奥
回复 支持 反对

使用道具 举报

发表于 2019-11-10 10:15:50 | 显示全部楼层
谢谢分享好音乐!
回复 支持 反对

使用道具 举报

发表于 2019-11-10 15:45:37 | 显示全部楼层
下载欣赏,谢谢推荐!
回复 支持 反对

使用道具 举报

发表于 2019-11-10 21:53:37 | 显示全部楼层
美妙无比的音乐
回复 支持 反对

使用道具 举报

发表于 2019-11-11 09:20:51 | 显示全部楼层
谢谢楼主分享
回复 支持 反对

使用道具 举报

发表于 2019-11-11 11:43:43 | 显示全部楼层
Day 4. Thanks for Sharing!
回复 支持 反对

使用道具 举报

发表于 2019-11-11 12:23:30 | 显示全部楼层
音乐生活每一天
回复 支持 反对

使用道具 举报

发表于 2019-11-11 12:42:28 | 显示全部楼层
谢谢楼主分享
回复 支持 反对

使用道具 举报

发表于 2019-11-11 13:44:17 | 显示全部楼层
谢谢!收藏了!
回复 支持 反对

使用道具 举报

发表于 2019-11-11 18:38:19 | 显示全部楼层
感激分享,期待欣赏
回复 支持 反对

使用道具 举报

您需要登录后才可以回帖 登录 | 立即注册

本版积分规则

手机版|炫音音乐论坛 ( 皖ICP备13017420号-3 )皖公网安备 34082502000069号

GMT+8, 2019-12-9 03:47 , Processed in 0.077400 second(s), 27 queries , Gzip On.

Powered by Discuz! X3.4

© 2004-2017 炫音音乐论坛

快速回复 返回顶部 返回列表