查看: 264|回复: 54

[分享] 【Classical】Ludovico Einaudi – Seven Days Walking (Day 6) (2019)[TR24][OF]

  [复制链接]
发表于 2019-11-11 18:33:42 | 显示全部楼层 |阅读模式
1.jpg


Artist: Ludovico Einaudi
Title: Seven Days Walking (Day 6)
Year Of Release: 2019
Label: Decca
Genre: Classical
Quality: FLAC
Total Time: 00:56:10
Size: 1060 MB

01 – Low Mist Var. 1 (Day 6)
02 – Low Mist (Day 6)
03 – Gravity (Day 6)
04 – Matches (Day 6)
05 – A Sense Of Symmetry (Day 6)
06 – Cold Wind Var. 1 (Day 6)
07 – Cold Wind (Day 6)
08 – Cold Wind Var. 2 (Day 6)
09 – Low Mist Var. 2 (Day 6)
10 – Ascent (Day 6)    试听
11 – The Path Of The Fossils (Day 6)






游客,如果您要查看本帖隐藏内容请回复,如果您想免回复、免金币,直接查看内容,请开通炫音VIP

评分

参与人数 3音符 +35 炫币 +35 收起 理由
雨欣 + 10 + 10 感谢分享!
kamusyy + 20 赞一个!

查看全部评分

 楼主| 发表于 2019-11-11 18:34:27 | 显示全部楼层
foobar2000 1.4 / Dynamic Range Meter 1.1.1

--------------------------------------------------------------------------------
Analyzed: Ludovico Einaudi / Seven Days Walking (Day 6)
--------------------------------------------------------------------------------

DR         Peak         RMS     Duration Track
--------------------------------------------------------------------------------
DR12     -10.34 dB   -26.54 dB      3:09 01-Low Mist Var. 1 (Day 6)
DR11      -0.53 dB   -15.89 dB      3:20 02-Low Mist (Day 6)
DR11      -0.40 dB   -16.60 dB      5:55 03-Gravity (Day 6)
DR13      -6.35 dB   -25.38 dB      3:12 04-Matches (Day 6)
DR12      -3.66 dB   -21.40 dB      4:03 05-A Sense Of Symmetry (Day 6)
DR15      -4.28 dB   -24.87 dB      3:58 06-Cold Wind Var. 1 (Day 6)
DR9       -0.40 dB   -14.48 dB      7:07 07-Cold Wind (Day 6)
DR14      -4.96 dB   -24.82 dB      1:42 08-Cold Wind Var. 2 (Day 6)
DR11      -0.40 dB   -16.72 dB      8:07 09-Low Mist Var. 2 (Day 6)
DR11      -0.40 dB   -18.58 dB      5:58 10-Ascent (Day 6)
DR9       -0.40 dB   -14.29 dB      9:47 11-The Path Of The Fossils (Day 6)
--------------------------------------------------------------------------------

Number of tracks:  11
Official DR value: DR12
Samplerate:        96000 Hz
Channels:          2
Bits per sample:   24
Bitrate:           2691 kbps
Codec:             FLAC
================================================================================

回复 支持 反对

使用道具 举报

发表于 2019-11-11 18:40:48 | 显示全部楼层
谢谢楼主热心分享,很期待
回复 支持 反对

使用道具 举报

发表于 2019-11-11 18:47:00 | 显示全部楼层
谢谢楼主分享
回复 支持 反对

使用道具 举报

发表于 2019-11-11 19:21:58 | 显示全部楼层
多给自己留点空间,放下生活的烦事,听听美妙的音乐。
回复 支持 反对

使用道具 举报

发表于 2019-11-11 20:26:37 | 显示全部楼层
谢谢楼主分享的钢琴音乐大礼包!
回复 支持 反对

使用道具 举报

发表于 2019-11-11 20:41:42 | 显示全部楼层
谢谢分享,好听的音乐
回复 支持 反对

使用道具 举报

发表于 2019-11-11 20:43:38 | 显示全部楼层
Ludovico Einaudi 七日行之六,继续收藏!谢谢楼主!
回复 支持 反对

使用道具 举报

发表于 2019-11-11 21:54:21 | 显示全部楼层
美妙音乐天天有
回复 支持 反对

使用道具 举报

发表于 2019-11-11 21:56:01 | 显示全部楼层
谢谢楼主分享
回复 支持 反对

使用道具 举报

发表于 2019-11-11 23:36:04 | 显示全部楼层
很是好听谢谢分享
回复 支持 反对

使用道具 举报

发表于 2019-11-11 23:48:49 | 显示全部楼层
谢谢楼主分享
回复 支持 反对

使用道具 举报

发表于 2019-11-12 04:03:26 | 显示全部楼层
谢谢分享, 这个非常不错也
回复 支持 反对

使用道具 举报

发表于 2019-11-12 06:46:09 | 显示全部楼层
第一先试听一下。
回复 支持 反对

使用道具 举报

发表于 2019-11-12 07:30:13 | 显示全部楼层
谢谢楼主分享......继续收藏
回复 支持 反对

使用道具 举报

您需要登录后才可以回帖 登录 | 立即注册

本版积分规则

手机版|炫音音乐论坛 ( 皖ICP备13017420号-3 )皖公网安备 34082502000069号

GMT+8, 2019-12-9 02:34 , Processed in 0.070371 second(s), 27 queries , Gzip On.

Powered by Discuz! X3.4

© 2004-2017 炫音音乐论坛

快速回复 返回顶部 返回列表