查看: 139|回复: 16

【Jazz】Najee - Center of the Heart [TR24][OF]

[复制链接]
发表于 2019-11-19 18:15:13 | 显示全部楼层 |阅读模式
1.jpg


Artist: Najee
Title: Center of the Heart
Year Of Release: 2019
Label: Shanachie
Genre: Jazz
Quality: FLAC/24bit/44.1kHz
Total Time: 00:48:14
Size: 573 MB

1. Bella Vista (5:07)
2. Face to Face (4:18)
3. Sumthin' Sumthin' (4:32)
4. Alfie (6:11)
5. Better (4:31)
6. The Way She Moves (4:20)
7. One Note Love (4:23)
8. Speak Love! (4:18)    试听
9. Center of the Heart (4:40)
10. Tonight We Say Goodbye (6:02)





游客,如果您要查看本帖隐藏内容请回复,如果您想免回复、免金币,直接查看内容,请开通炫音VIP

评分

参与人数 1音符 +5 金币 +5 收起 理由
wufeng + 5 + 5 炫音因你而精彩!

查看全部评分

 楼主| 发表于 2019-11-19 18:15:36 | 显示全部楼层
foobar2000 1.4.8 / Dynamic Range Meter 1.1.1

--------------------------------------------------------------------------------
Analyzed: Najee / Center of the Heart
--------------------------------------------------------------------------------

DR         Peak         RMS     Duration Track
--------------------------------------------------------------------------------
DR6       -0.22 dB    -7.73 dB      5:07 01-Bella Vista
DR7       -0.72 dB    -9.40 dB      4:18 02-Face to Face
DR8       -0.22 dB    -9.65 dB      4:32 03-Sumthin' Sumthin'
DR8       -0.22 dB    -9.88 dB      6:11 04-Alfie
DR6       -0.22 dB    -8.59 dB      4:31 05-Better
DR8       -0.22 dB    -9.85 dB      4:20 06-The Way She Moves
DR7       -0.22 dB    -9.31 dB      4:23 07-One Note Love
DR8       -0.22 dB    -9.19 dB      4:18 08-Speak Love!
DR7       -0.23 dB    -8.16 dB      4:40 09-Center of the Heart
DR8       -0.22 dB    -9.34 dB      6:02 10-Tonight We Say Goodbye
--------------------------------------------------------------------------------

Number of tracks:  10
Official DR value: DR7
Samplerate:        44100 Hz
Channels:          2
Bits per sample:   24
Bitrate:           1644 kbps
Codec:             FLAC
================================================================================

回复 支持 反对

使用道具 举报

发表于 2019-11-19 18:22:00 | 显示全部楼层
超爱浪漫爵士萨克斯.....谢谢分享好音乐!
回复 支持 反对

使用道具 举报

发表于 2019-11-19 18:27:35 | 显示全部楼层
很喜欢的时尚爵士萨。
回复 支持 反对

使用道具 举报

发表于 2019-11-19 18:40:16 | 显示全部楼层
音乐通过旋律的演绎,会使我们获益匪浅。
回复 支持 反对

使用道具 举报

发表于 2019-11-19 19:34:27 | 显示全部楼层
演奏的很浪漫
回复 支持 反对

使用道具 举报

发表于 2019-11-19 21:20:29 | 显示全部楼层
爵士乐里总有萨克斯的英姿,谢谢分享!
回复 支持 反对

使用道具 举报

发表于 2019-11-20 00:39:27 | 显示全部楼层
谢谢分享好音乐
回复 支持 反对

使用道具 举报

发表于 2019-11-20 08:38:52 | 显示全部楼层
又领楼主的福利了,谢啦!
回复 支持 反对

使用道具 举报

发表于 2019-11-20 09:03:53 | 显示全部楼层
谢谢分享!感受爵士魅力!
回复 支持 反对

使用道具 举报

发表于 2019-11-20 20:47:19 | 显示全部楼层
感谢楼主无私分享~~!!
回复 支持 反对

使用道具 举报

发表于 2019-11-21 10:26:53 | 显示全部楼层
赞一个,谢谢
回复 支持 反对

使用道具 举报

发表于 2019-11-22 23:37:00 | 显示全部楼层
就喜欢这样的,谢谢楼主。
回复 支持 反对

使用道具 举报

发表于 2019-11-27 10:32:39 | 显示全部楼层
时尚萨克斯曲
回复 支持 反对

使用道具 举报

您需要登录后才可以回帖 登录 | 立即注册

本版积分规则

手机版|炫音音乐论坛 ( 皖ICP备13017420号-3 )皖公网安备 34082502000069号

GMT+8, 2019-12-14 05:32 , Processed in 0.091225 second(s), 27 queries , Gzip On.

Powered by Discuz! X3.4

© 2004-2017 炫音音乐论坛

快速回复 返回顶部 返回列表