查看: 145|回复: 12

【ECM】Michele Rabbia, Gianluca Petrella, Eivind Aarset - Lost River [TR24][OF]

[复制链接]
发表于 2019-11-20 18:31:05 | 显示全部楼层 |阅读模式
本帖最后由 ynbjian 于 2019-11-20 20:18 编辑

1.jpg


Artist: Michele Rabbia, Gianluca Petrella, Eivind Aarset
Title: Lost River
Year Of Release: 2019
Label: ECM [2609]
Genre: Jazz
Quality: FLAC /24bit/48kHz
Total Time: 00:44:13
Size: 419 MB

1. Nimbus (05:13)
2. Flood (04:21)    试听
3. What Floats Beneath (05:43)
4. Lost River (04:45)
5. Styx (02:51)
6. Night Sea Journey (05:43)
7. Fluvius (06:25)
8. What The Water Brings (05:45)
9. Flotsam (01:27)
10. Wadi (02:00)

Michele Rabbia, drums, electronics
Gianluca Petrella, trombone, sounds
Eivind Aarset, guitar, electronics





游客,如果您要查看本帖隐藏内容请回复,如果您想免回复、免金币,直接查看内容,请开通炫音VIP

评分

参与人数 2音符 +10 炫币 +5 金币 +5 收起 理由
wufeng + 5 + 5 炫音因你而精彩!
樱樱 + 5 炫音因你而精彩!

查看全部评分

 楼主| 发表于 2019-11-20 18:31:53 | 显示全部楼层
《迷失的河流》是一种令人回味的空间和丰富的音景,是近期ECM的一个杰出的超越记录。鼓手Michele Rabbia和吉他手Eivind Aarset参加过许多双人演唱会,Rabbia还在其他场合与长号手Gianluca Petrella合作过,但这张唱片标志着三人组的首演。《迷失的河流》大部分都是即兴创作的,神秘的细节在其声景中绽放,不断新的形式展现出来。拉比亚的鼓点是自由的创造性和推进,并加入他的电声乐器得以增强。Aarset流动玩会取悦听众享受他的梦想逻辑项目和他的贡献与Nils Petter Molvar录音,Tigran Hamasyan, Andy Sheppard和其他人。Petrella作为一个主要的乐器手的角色将会让那些只知道他是一个伟大的“爵士”独奏者与恩里科拉瓦和乔瓦尼古蒂惊讶;在这张于2018年1月在乌迪内录制的录音中,曼弗雷德·艾赫(Manfred Eicher)的大动态制作非常好地运用在这专辑上。---网络


2.jpeg





foobar2000 1.4 / Dynamic Range Meter 1.1.1

--------------------------------------------------------------------------------
Analyzed: Michele Rabbia / Lost River
--------------------------------------------------------------------------------

DR         Peak         RMS     Duration Track
--------------------------------------------------------------------------------
DR11      -1.08 dB   -16.12 dB      5:14 01-Nimbus
DR12      -2.17 dB   -19.44 dB      4:22 02-Flood
DR12      -4.45 dB   -22.03 dB      5:43 03-What Floats Beneath
DR14      -2.44 dB   -23.20 dB      4:46 04-Lost River
DR10      -2.22 dB   -21.02 dB      2:51 05-Styx
DR16      -1.60 dB   -24.80 dB      5:43 06-Night Sea Journey
DR11      -2.23 dB   -19.36 dB      6:25 07-Fluvius
DR12      -0.50 dB   -17.94 dB      5:46 08-What The Water Brings
DR14      -2.04 dB   -22.96 dB      1:27 09-Flotsam
DR19      -0.49 dB   -26.62 dB      2:01 10-Wadi
--------------------------------------------------------------------------------

Number of tracks:  10
Official DR value: DR13
Samplerate:        48000 Hz
Channels:          2
Bits per sample:   24
Bitrate:           1236 kbps
Codec:             FLAC
================================================================================

回复 支持 反对

使用道具 举报

发表于 2019-11-20 19:20:40 | 显示全部楼层
习惯一个人的音乐,一个人的音乐是心灵最深处遐想。
回复 支持 反对

使用道具 举报

发表于 2019-11-20 19:53:01 | 显示全部楼层
谢谢分享令人回味的音乐
回复 支持 反对

使用道具 举报

发表于 2019-11-20 20:10:00 | 显示全部楼层
爵士乐是一种优雅的音乐,谢谢分享!
回复 支持 反对

使用道具 举报

发表于 2019-11-20 20:19:36 | 显示全部楼层
本帖最后由 ASIRN 于 2019-11-20 20:26 编辑

这张专辑是电音风格的爵士乐么?下来欣赏!谢谢楼主分享!
回复 支持 反对

使用道具 举报

发表于 2019-11-20 20:41:31 | 显示全部楼层
感谢楼主无私分享~~!!
回复 支持 反对

使用道具 举报

发表于 2019-11-20 23:01:55 | 显示全部楼层
美妙的爵士音乐
回复 支持 反对

使用道具 举报

发表于 2019-11-21 08:04:21 | 显示全部楼层
谢谢楼主分享
回复 支持 反对

使用道具 举报

发表于 2019-11-21 10:24:32 | 显示全部楼层
谢谢。辛苦了
回复 支持 反对

使用道具 举报

发表于 2019-11-21 11:50:55 | 显示全部楼层
谢分享美妙的爵士音乐
回复 支持 反对

使用道具 举报

发表于 2019-11-21 13:10:06 | 显示全部楼层
謝謝!!!示範發燒碟
回复 支持 反对

使用道具 举报

发表于 2019-11-27 09:31:57 | 显示全部楼层
令人回味的音乐
回复 支持 反对

使用道具 举报

您需要登录后才可以回帖 登录 | 立即注册

本版积分规则

手机版|炫音音乐论坛 ( 皖ICP备13017420号-3 )皖公网安备 34082502000069号

GMT+8, 2019-12-14 04:35 , Processed in 0.077881 second(s), 27 queries , Gzip On.

Powered by Discuz! X3.4

© 2004-2017 炫音音乐论坛

快速回复 返回顶部 返回列表