查看: 143|回复: 18

【Jazz】Kirk Whalum - Humanite [TR24][OF]

[复制链接]
发表于 2019-11-24 18:07:12 | 显示全部楼层 |阅读模式
本帖最后由 ynbjian 于 2019-11-24 18:11 编辑

1.jpg


Artist: Kirk Whalum
Title: Humanite
Year Of Release: 2019
Label: Artistry Music
Genre: Jazz
Quality: FLAC/24bit/96kHz
Total Time: 00:49:15
Size: 1290 MB


01. Move on Up (feat. Brendan Reilly)
02. Everybody Oughta Be Free (feat. Robyn Troop)
03. Don't Get Me Wrong (I’m Grateful) (feat. Mi Casa)
04. Wake up Everybody (feat. Afgan)
05. Wildflower (feat. Liane Carroll)
06. Get Your Wings Up (feat. Andréa Lisa)
07. Now I Know (feat. Zahara)
08. SJL (feat. Keiko Matsui) 试听
09. Korogocho (feat. Marcus Miller & Barry Likumahuwa)
10. Blow 4U
11. Kwetu (feat. Ghetto Classics & Aaron Rimbui)
12. Peace (feat. Grace Sahertian)
13. We Shall Overcome You (feat. Asa)
14. From the East to the West (feat. Heavenese)





游客,如果您要查看本帖隐藏内容请回复,如果您想免回复、免金币,直接查看内容,请开通炫音VIP

评分

参与人数 1音符 +5 金币 +5 收起 理由
wufeng + 5 + 5 炫音因你而精彩!

查看全部评分

 楼主| 发表于 2019-11-24 18:09:31 | 显示全部楼层
本帖最后由 ynbjian 于 2019-11-24 18:10 编辑

当年与Bob James合作时的小哥也老了……

kirk-whalum.jpg




foobar2000 1.4.8 / Dynamic Range Meter 1.1.1

--------------------------------------------------------------------------------
Analyzed: Kirk Whalum / Humanité
--------------------------------------------------------------------------------

DR         Peak         RMS     Duration Track
--------------------------------------------------------------------------------
DR10      -1.00 dB   -11.91 dB      3:57 01-Move on Up
DR11      -1.00 dB   -13.92 dB      5:06 02-Everybody Oughta Be Free
DR10      -1.30 dB   -12.48 dB      4:42 03-Don't Get Me Wrong (I’m Grateful)
DR10      -1.00 dB   -13.10 dB      4:54 04-Wake up Everybody
DR10      -1.00 dB   -13.06 dB      5:02 05-Wildflower
DR10      -1.00 dB   -13.02 dB      5:30 06-Get Your Wings Up
DR10      -1.00 dB   -13.49 dB      4:06 07-Now I Know
DR11      -1.00 dB   -13.49 dB      5:06 08-SJL
DR11      -1.00 dB   -12.75 dB      5:56 09-Korogocho
DR11      -1.00 dB   -13.29 dB      4:41 10-Blow 4U
DR11      -1.10 dB   -13.10 dB      5:32 11-Kwetu
DR9       -1.00 dB   -13.02 dB      4:46 12-Peace
DR10      -1.00 dB   -12.88 dB      3:56 13-We Shall Overcome You
DR10      -1.00 dB   -12.68 dB      4:32 14-From the East to the West
--------------------------------------------------------------------------------

Number of tracks:  14
Official DR value: DR10
Samplerate:        96000 Hz
Channels:          2
Bits per sample:   24
Bitrate:           2769 kbps
Codec:             FLAC
================================================================================

回复 支持 反对

使用道具 举报

发表于 2019-11-24 18:40:52 | 显示全部楼层
快乐时听听这样的音乐会令人更舒畅。
回复 支持 反对

使用道具 举报

发表于 2019-11-24 18:46:07 | 显示全部楼层
谢谢分享精品爵士乐
回复 支持 反对

使用道具 举报

发表于 2019-11-24 19:00:12 | 显示全部楼层
这把萨克斯真是漂亮。
回复 支持 反对

使用道具 举报

发表于 2019-11-24 19:18:00 | 显示全部楼层
谢谢分享精品爵士萨克斯乐
回复 支持 反对

使用道具 举报

发表于 2019-11-24 19:58:30 | 显示全部楼层
楼主很厉害,四连发啊!
回复 支持 反对

使用道具 举报

发表于 2019-11-24 20:07:34 | 显示全部楼层
聆听爵士乐,享受周末时光。。。谢谢楼主分享!
回复 支持 反对

使用道具 举报

发表于 2019-11-24 21:13:42 | 显示全部楼层
试听不错,谢谢推荐!
回复 支持 反对

使用道具 举报

发表于 2019-11-25 07:58:52 | 显示全部楼层
谢谢分享,辛苦了!
回复 支持 反对

使用道具 举报

发表于 2019-11-25 08:36:57 | 显示全部楼层
谢谢楼主分享
回复 支持 反对

使用道具 举报

发表于 2019-11-25 11:48:09 | 显示全部楼层
感谢楼主无私分享~~!!
回复 支持 反对

使用道具 举报

发表于 2019-11-25 14:12:26 | 显示全部楼层
谢谢楼主分享好听的音乐。
回复 支持 反对

使用道具 举报

发表于 2019-11-25 17:59:20 | 显示全部楼层
感谢楼主无私分享~
回复 支持 反对

使用道具 举报

您需要登录后才可以回帖 登录 | 立即注册

本版积分规则

手机版|炫音音乐论坛 ( 皖ICP备13017420号-3 )皖公网安备 34082502000069号

GMT+8, 2019-12-14 04:49 , Processed in 0.076810 second(s), 27 queries , Gzip On.

Powered by Discuz! X3.4

© 2004-2017 炫音音乐论坛

快速回复 返回顶部 返回列表