查看: 344|回复: 33

[乡村] 【Country】Little Big Town - Nightfall 2020 [TR24][OF]

[复制链接]
发表于 2020-3-13 19:12:15 | 显示全部楼层 |阅读模式
1.jpg

Artist: Little Big Town
Title: Nightfall
Year Of Release: 2020
Label: Capitol Records Nashville Recording
Genre: 46:15
Quality: FLAC
Total Time: 00:49:15
Size: 1007.9 MB

01 - Next To You (4:07)    试听
02 - Nightfall (3:21)
03 - Forever And A Night (4:26)
04 - Throw Your Love Away (3:44)
05 - Over Drinking (3:10)
06 - Wine, Beer, Whiskey (3:16)
07 - Questions (3:04)
08 - The Daughters (3:33)
09 - River Of Stars (3:37)
10 - Sugar Coat (3:40)
11 - Problem Child (3:35)
12 - Bluebird (3:11)
13 - Trouble With Forever (3:31)





游客,如果您要查看本帖隐藏内容请回复,如果您想免回复、免金币,直接查看内容,请开通炫音VIP

评分

参与人数 4音符 +18 炫币 +13 金币 +5 收起 理由
iskpyj + 7 + 7 炫音因你而精彩!
wufeng + 5 炫音因你而精彩!

查看全部评分

 楼主| 发表于 2020-3-13 19:14:29 | 显示全部楼层
2.jpg

个人喜欢的组合,嗓音挺中意的……
回复 支持 反对

使用道具 举报

 楼主| 发表于 2020-3-13 19:15:16 | 显示全部楼层
--------------------------------------------------------------------------------
Analyzed: Little Big Town / Nightfall
--------------------------------------------------------------------------------

DR         Peak         RMS     Duration Track
--------------------------------------------------------------------------------
DR6       -0.30 dB    -9.48 dB      4:07 01-Next To You
DR6       -0.30 dB    -7.44 dB      3:21 02-Nightfall
DR6       -0.30 dB   -10.68 dB      4:26 03-Forever And A Night
DR6       -0.30 dB    -8.54 dB      3:44 04-Throw Your Love Away
DR5       -0.32 dB    -6.50 dB      3:10 05-Over Drinking
DR6       -0.30 dB    -8.53 dB      3:16 06-Wine, Beer, Whiskey
DR6       -0.30 dB    -9.91 dB      3:04 07-Questions
DR5       -0.30 dB    -7.28 dB      3:33 08-The Daughters
DR5       -0.30 dB    -8.10 dB      3:37 09-River Of Stars
DR4       -0.30 dB    -7.56 dB      3:40 10-Sugar Coat
DR7       -0.38 dB    -9.12 dB      3:35 11-Problem Child
DR6       -0.30 dB    -8.34 dB      3:11 12-Bluebird
DR6       -0.30 dB    -9.16 dB      3:31 13-Trouble With Forever
--------------------------------------------------------------------------------

Number of tracks:  13
Official DR value: DR6

Samplerate:        96000 Hz
Channels:          2
Bits per sample:   24
Bitrate:           3293 kbps
Codec:             FLAC
================================================================================
回复 支持 反对

使用道具 举报

发表于 2020-3-13 19:38:43 | 显示全部楼层
欣赏您推荐的音乐。多谢分享。
回复 支持 反对

使用道具 举报

发表于 2020-3-13 19:53:02 | 显示全部楼层
周末快乐!谢谢分享乡村音乐
回复 支持 反对

使用道具 举报

发表于 2020-3-14 15:18:58 | 显示全部楼层
谢谢分享乡村里大组合较少
回复 支持 反对

使用道具 举报

发表于 2020-3-15 08:01:33 | 显示全部楼层
纯净的声音,谢谢分享!
回复 支持 反对

使用道具 举报

 成长值: 250

发表于 2020-3-15 12:34:31 | 显示全部楼层
下载试听,感谢提供分享
回复 支持 反对

使用道具 举报

发表于 2020-3-15 12:47:05 | 显示全部楼层
谢谢楼主分享,楼主辛苦了。
回复 支持 反对

使用道具 举报

发表于 2020-3-15 21:15:16 | 显示全部楼层

周末快乐!谢谢分享乡村音乐
回复 支持 反对

使用道具 举报

发表于 2020-3-15 23:43:10 | 显示全部楼层
十分感谢楼主分享!!
回复 支持 反对

使用道具 举报

发表于 2020-3-16 09:28:16 | 显示全部楼层
乡村四人组,谢谢楼主!
回复 支持 反对

使用道具 举报

发表于 2020-3-16 09:31:24 | 显示全部楼层
收藏欣赏,谢谢!!
回复 支持 反对

使用道具 举报

发表于 2020-3-16 22:30:21 | 显示全部楼层
谢谢楼主 收藏了 非常喜欢这个专辑
回复 支持 反对

使用道具 举报

您需要登录后才可以回帖 登录 | 立即注册

本版积分规则

手机版|炫音音乐论坛 ( 皖ICP备13017420号-3 )皖公网安备 34082502000069号

GMT+8, 2020-4-1 12:39 , Processed in 0.093006 second(s), 30 queries , Gzip On.

Powered by Discuz! X3.4

© 2004-2017 炫音音乐论坛

快速回复 返回顶部 返回列表