查看: 1132|回复: 93

[发烧试音] 【原抓】李健《珍爱深深》3CD[WAV+CUE/百度云]

  [复制链接]
发表于 2020-3-26 15:53:51 | 显示全部楼层 |阅读模式
本帖最后由 kdasee 于 2020-4-4 09:32 编辑

游客,如果您要查看本帖隐藏内容请回复,如果您想免回复、免金币,直接查看内容,请开通炫音VIP


封面.jpg
封底.jpg
CDA.jpg

专辑名称:珍爱深深 3CD
专辑艺人:李健
出版发行:武汉音像出版社
ISRC:CN-F05-09-438-00/A.J6
资源格式:WAV+CUE

专辑简介:

最温暖的沉淀 最朴实的坚持 最无争的好声音

专辑曲目:

CD1

01.珍爱深深
02.传奇
03.大海啊,故乡
04.八月照相馆
05.不知不觉
06.为你而来
07.父亲
08.一辈子的10分钟
09.今生今世遥不可及
10.遥远的天空底下
11.小鸟睡在我身旁
12.绒花
13.窗台
14.陀螺
15.恋人
16.再别康桥

CD2

01.最美的春天
02.完美坚持
03.璀璨
04.一往情深的恋人
05.圣洁之光
06.故乡山川
07.在每个想你的夜里
08.LILY
09.爱的四季
10.转眼瞬间
11.好望角
12.我的朋友
13.绽放
14.似水流年
15.当有天老去
16.但愿人长久
17.戏迷人生

CD3

01.向往
02.风吹麦浪
03.温暖
04.传奇
05.紫罗兰
06.抚仙湖
07.童年
08.超越
09.梦一场
10.松花江
11.天狐
12.异乡人
13.想念你
14.COLOR ME LOVE
15.露天电影院
16.矜持
17.什刹海
18.溺爱

试听:风吹麦浪



(压缩包添加了5%的恢复记录,必要时用。)

01.png
03.png
02.png

Exact Audio Copy V0.99 prebeta 5 from 4. May 2009

EAC 抓取日志文件从20. 十月 2014, 8:01

未知艺术家 / 未知标题

使用驱动器  :PIONEER DVD-RW  DVR-219L   Adapter: 3  ID: 0

读取模式     : 保护
使用精确流   : 是
废除音频缓冲 : 是
使用 C2 指针 : 否

组合读/写偏移校正              : 0
读取 Lead-In 和 Lead-Out       : 否
用静音填充抓取中丢失偏移的采样 : 是
去除首尾静音块                 : 否
在 CRC 计算中使用了空样本      : 是
已用接口                       : Win NT 及 2000 本地 Win32 接口

所用输出格式 : 内部 WAV 函数
样本格式     : 44.100 Hz;16 Bit;立体声


被抓轨 CD 的 TOC

     音轨 |   开始   |   长度   | 起始扇区 | 结尾扇区
    --------------------------------------------------
       1  |  0:00.00 |  4:33.67 |       0  |   20541  
       2  |  4:33.67 |  4:54.50 |   20542  |   42641  
       3  |  9:28.42 |  3:41.33 |   42642  |   59249  
       4  | 13:10.00 |  4:23.49 |   59250  |   79023  
       5  | 17:33.49 |  5:18.72 |   79024  |  102945  
       6  | 22:52.46 |  4:25.01 |  102946  |  122821  
       7  | 27:17.47 |  3:12.19 |  122822  |  137240  
       8  | 30:29.66 |  5:09.00 |  137241  |  160415  
       9  | 35:38.66 |  3:48.04 |  160416  |  177519  
      10  | 39:26.70 |  4:37.15 |  177520  |  198309  
      11  | 44:04.10 |  2:40.23 |  198310  |  210332  
      12  | 46:44.33 |  4:25.19 |  210333  |  230226  
      13  | 51:09.52 |  5:49.12 |  230227  |  256413  
      14  | 56:58.64 |  5:01.39 |  256414  |  279027  
      15  | 62:00.28 |  4:11.41 |  279028  |  297893  
      16  | 66:11.69 |  5:16.38 |  297894  |  321631  


范围状态及错误

已选择范围

     文件名 D:\原抓\李健《珍爱深深》\CD1\未知艺术家 - 未知标题.wav

     峰值电平 100.0 %
     范围质量 100.0 %
     复制 CRC 12968470
     复制成功

没有错误发生

状态报告结尾
发表于 2020-3-26 18:52:16 | 显示全部楼层
听听这 李健《珍爱深深》,十分 感谢 。
回复 支持 反对

使用道具 举报

发表于 2020-3-26 19:37:58 | 显示全部楼层
十分 感谢 十分 感谢
回复 支持 反对

使用道具 举报

发表于 2020-3-26 19:40:21 | 显示全部楼层
万分感谢 感谢楼主!!
回复 支持 反对

使用道具 举报

发表于 2020-3-26 20:08:58 | 显示全部楼层
华语歌手很喜欢李健,谢谢您分享。
回复 支持 反对

使用道具 举报

发表于 2020-3-26 21:29:03 | 显示全部楼层
品味李健《珍爱深深》......谢谢分享
回复 支持 反对

使用道具 举报

发表于 2020-3-26 21:58:43 | 显示全部楼层
都是好听的歌曲,多谢分享。
回复 支持 反对

使用道具 举报

发表于 2020-3-26 22:25:40 | 显示全部楼层
谢谢分享比较全的乐集
回复 支持 反对

使用道具 举报

发表于 2020-3-26 23:15:41 | 显示全部楼层
十分 感谢 十分 感谢
回复 支持 反对

使用道具 举报

发表于 2020-3-27 00:12:53 | 显示全部楼层

发烧流行曲目,感谢楼主分享!
回复 支持 反对

使用道具 举报

发表于 2020-3-27 08:26:58 | 显示全部楼层
当下来听听,多谢分享!
回复 支持 反对

使用道具 举报

发表于 2020-3-27 08:44:46 | 显示全部楼层
李健的歌都很抒情,谢谢分享
回复 支持 反对

使用道具 举报

发表于 2020-3-27 09:13:57 | 显示全部楼层
谢谢楼主分享、辛苦了!!!
回复 支持 反对

使用道具 举报

发表于 2020-3-27 10:40:24 | 显示全部楼层
没有听过,拿来听听,谢了
回复 支持 反对

使用道具 举报

您需要登录后才可以回帖 登录 | 立即注册

本版积分规则

手机版|炫音音乐论坛 ( 皖ICP备13017420号-3 )皖公网安备 34082502000069号

GMT+8, 2020-6-7 08:56 , Processed in 0.074240 second(s), 26 queries , Gzip On.

Powered by Discuz! X3.4

© 2004-2017 炫音音乐论坛

快速回复 返回顶部 返回列表