查看: 652|回复: 48

[分享] Albert Rubenson – Symphonic works – Roy Goodman[FLAC/BAIDU]

[复制链接]
发表于 2020-8-21 09:44:59 | 显示全部楼层 |阅读模式
001 - 副本.jpg
cd - 副本.jpg
back - 副本.jpg

Albert Rubenson – Symphonic works – Roy Goodman

Audio CD (1998)
SPARS Code: DDD
Number of Discs: 1
Label: Sterling Records

01. Symphony in C major - I. Allegro moderato    [0:04:17.62]
02. Symphony in C major - II. Allegretto moderato - Allegro - Tempo primo - Allegro - Lento - Tempo primo    [0:07:13.65]
03. Symphony in C major - III. Andante (attacca)    [0:05:30.35]
04. Symphony in C major - IV. Allegro con fuoco, ma non troppo presto    [0:06:01.03]
05. Symphony in C major - V. Allegro con fuoco, ma non troppo presto    [0:05:28.05]
06. Symphonic Intermezzo in G minor - I. Allegro moderato    [0:07:06.25]
07. Symphonic Intermezzo in G minor - II. Andante    [0:05:57.60]
08. Symphonic Intermezzo in G minor - III. Allegro non troppo    [0:06:16.25]
09. Trois Pièces symphoniques - I. Allegretto quasi Allegro    [0:04:48.32]
10. Trois Pièces symphoniques - II. Vivace    [0:02:28.58]
11. Trois Pièces symphoniques - III. Allegro ma non troppo    [0:06:34.50]
游客,如果您要查看本帖隐藏内容请回复,如果您想免回复、免金币,直接查看内容,请开通炫音VIP



点评

spflcm辛苦。  发表于 2020-8-21 09:54

评分

参与人数 3音符 +35 炫币 +30 金币 +5 收起 理由
kamusyy + 20 + 20 赞一个!
雨欣 + 10 感谢分享!

查看全部评分

发表于 2020-8-21 09:54:20 | 显示全部楼层
这位作曲家的作品也没有听过,谢谢分享!
回复 支持 反对

使用道具 举报

发表于 2020-8-21 10:04:45 | 显示全部楼层
哇,楼主收藏丰富啊,谢谢
回复 支持 反对

使用道具 举报

发表于 2020-8-21 10:06:18 | 显示全部楼层
阿尔伯特·鲁宾森——交响乐作品,楼主每天发资源辛苦啦,衷心感谢。
回复 支持 反对

使用道具 举报

发表于 2020-8-21 10:11:35 | 显示全部楼层
本帖最后由 lhywz 于 2020-8-21 22:45 编辑

阿尔伯特·鲁宾森:管弦乐作品

01  音乐会序曲《德拉帕》(颂歌)
       短小的音乐会序曲《德拉帕》(颂歌)首次演出于1866年,但可能是在几年前创作的。这个标题暗示了一种仪式性的,几乎是修辞性的构图——德拉帕是冰岛古代赞美诗的一个术语,常常献给国王或一位伟大的酋长。鲁宾森的作品有着北欧的氛围,包含了许多紧张、急迫的进行曲节奏;然而,由于其梦幻般的性格以及各种动机不断交替的方式,它获得了一种几乎多变的性格。作品既充满活力又撞击心灵,结合了对管弦乐色彩的处理,这种色彩在大调和小调之间出人意料的定位,显示出许多变化的细微差别。

02-04  C大调交响曲
      鲁宾森的C大调交响曲于1847年在莱比锡创作,其第一乐章于1851年在斯德哥尔摩修订。这部四乐章的作品于1857年3月3日在宫廷指挥家雅各布·福罗尼的指挥下首次演出,这部作品受到了几度好评,例如安东·多尔在新音乐杂志和弗兰兹·贝尔瓦尔德在瑞典晚报上的好评。贝尔瓦尔德承认也提出了一些批评,但他说到这是“一部充满年轻热情、完全没有矫揉造作的音乐作品”;他还指出了受“最近的德国音乐”的影响,特别是在交响乐的开场乐章(6/4拍中),对门德尔松和舒曼的回忆给气氛和旋律增添了色彩。经过几段充满活力、引人注意的前奏小节,在取消了小调后,我们听到了此乐章梦幻般的主旋律,第二主题也有其不规则的韵律结构,是相当灵活的,即使主题本身是以G大调“惯例”呈现的,它的过渡涉及到各种不同的调性。总的来说,这一乐章有着丰富的不寻常的调式,也包含着节奏的多样性,有点反复多变。然而,在这种丰富的想象力中,作曲家用他的动机材料紧张而有逻辑地创作,北欧伤悲的元素也不缺少。令人惊讶的尾声是一个原汁原味——事实上,交响乐中的其他快速乐章也有类似的精致结尾。
      第二乐章的结构也是非传统的;在这里,一个几乎具有间奏曲性质的中庸快板与一个类似谐谑的快板形成对比。近乎民间的音乐在节奏要求很高的快板部分是显而易见的,这似乎也与盖德的旋律风格密切相关。轻快的快板,同时,包含了民间舞蹈般的节奏由令人耳目一新的移位重音使得更有生气。交响乐慢乐章以平静、充满歌声的旋律为主;这些旋律都源于前奏中所听到的简单的动机形式,并以不可阻挡的势头向前推进。在乐章的中间部分,画面变得有些不安,但潜在的情绪仍然常常带有温和的抒情性,尽管主调略带忧郁。在行板的最后一个音符上方,我们听到一个小号的表达,它直接进入了终乐章,主要是明亮和乐观的,具有大张旗鼓的、向前推进的主题,可以称之为“胜利”特征。作曲家喜欢频繁的变调强调了动态的基本情绪,这一特点同时赋予这一明亮、年轻和充满活力的乐章以适当的严肃性。

05-07  g小调交响间奏曲
    上面是鲁宾森创作的唯一的一部交响曲,尽管据说在第一次听到C大调交响曲几年后,他向贝尔瓦尔德展示了一个交响乐乐章。这一乐章很可能进入了g小调交响间奏曲,这部作品于1860年完成,但直到1868年才开始演奏。在这部作品中,这位作曲家把他关于民间音乐可能性的想法惊人地转移到更大的音乐形式上。第一乐章以一首忧郁的民歌为主题,由独奏大提琴演奏。主旋律可以说是同一个动机思想的更有力的版本,第二主题是大调中的一个简短的旋律,它被一个短号独奏减慢,然后与一个简短、紧绷的尾声结合在一起。在这个充满民间影响的阐述中,几乎没有过渡乐段,而且明显不同的发展部表现出类似的关注。这一乐章以格言主题结束,这一主题上升到g小调和弦,然后,让位于一个孤独的,逐渐消失的短号音符。
      中段乐章以降B大调的一首充满歌曲的行板开始,在竖琴般的和弦之上有舒曼式的旋律。然而,突然间,平静被一个粗野的舞蹈主题打破了,它表示这是这一乐章的谐谑部分,一种类似快板的民间舞蹈,三拍子,几乎有’挪威’的气氛。因此,这一乐章包含了两个对比鲜明的特性,可与C大调交响乐第二乐章的情绪相媲美。大结局以一个充满活力的、全面的、切分的主题开始,接着是一个更为柔顺的乐思。在一个柔顺的过渡之后,随着和声乐句的呼应,由一个灵活的歌曲般的双簧管旋律接管。在贝斯的切分节奏之上,各种各样的主题被设计出来,渐渐地,一个长呼吸的单簧管旋律出现了(这与民间音乐有着惊人的亲和力)。在重述之后,这一乐章被格言主题包围,就像第一乐章的结尾一样。
      除了几乎程式化地使用民间音乐的声音,这部作品中非常灵活的旋律材料——有时依赖于半音阶——也是鲁宾森非常典型的特点;只有很少的更有活力的创作才能突破。高度原创的编曲,非常简洁,创造了一个非常特别的声音,也有助于给人留下灵活性的印象。鲁宾森不断地通过在乐句中添加或移除乐器来为声音着色,这是C大调交响曲中所预见的一种技巧(也是路德维格·诺曼在交响乐中使用的),但他在交响间奏曲中特别有意识地使用了这种技巧,创造出一种独特的波动氛围。

08-10  交响小品3则
    鲁宾森将第二部交响间奏曲改名为《交响小品3则》,也许是因为这首曲子缺乏慢乐章,因而缺乏他最初打算的交响乐统一性。乐谱的日期是哥本哈根,1871年6月,于1873年首次演出。实际上,这是一套由三个轻量级、优雅的舞蹈乐章组成的组曲,它们有时倾向于民间音乐,有时倾向于沙龙风格,但这些乐章首先是充满活力和幽默感的;鲁宾森对管弦乐的自信地处理突出了它们的形式简洁。诚然,在第一则小品中,旋律材料有点笨拙,但在这里的节奏关系——在6/8和3/4之间的转换,是最重要的。节奏也是第二则小品的主导元素,一个快速而精神的谐谑曲。最后一则小品中更广泛、更多样的动机相互作用使民间舞蹈的旋律材料更为突出,整个乐章因此获得了更大的吸引力。如果这三则小品没有被掩埋在图书馆的书架上,瑞典早就骄傲地展现这位格里格交响舞蹈的前辈了!
○c伦纳特·赫德沃尔 1999
(翻译成英文:安德鲁·巴内特)


cue文件有误,应为下面所示

Albert Rubenson – Symphonic works – Roy Goodman.cue

REM GENRE Classical
REM DISCID 940E770B
REM COMMENT ExactAudioCopy v1.0b3
PERFORMER "Roy Goodman"
TITLE "Albert Rubenson – Symphonic works – Roy Goodman"
FILE "Albert Rubenson – Symphonic works – Roy Goodman.flac" WAVE
  TRACK 01 AUDIO
    TITLE "Drapa"
    INDEX 01 00:00:00
  TRACK 02 AUDIO
    TITLE "Symphony in C major - I. Allegro moderato"
    INDEX 01 04:17:62
  TRACK 03 AUDIO
    TITLE "Symphony in C major - II. Allegretto moderato - Allegro - Tempo primo - Allegllegro - Lento - Tempo primo"
    INDEX 01 11:31:52
  TRACK 04 AUDIO
    TITLE "Symphony in C major - III. Andante (attacca)"
    INDEX 01 17:02:12
  TRACK 05 AUDIO
    TITLE "Symphony in C major - IV. Allegro con fuoco, ma non troppo presto"
    INDEX 01 23:03:15
  TRACK 06 AUDIO
    TITLE "Symphonic Intermezzo in g minor - I. Allegro moderato"
    INDEX 00 28:31:19
    INDEX 01 28:31:20
  TRACK 07 AUDIO
    TITLE "Symphonic Intermezzo in g minor - II. Andante"
    INDEX 01 35:37:45
  TRACK 08 AUDIO
    TITLE "Symphonic Intermezzo in g minor - III. Allegro non troppo"
    REM DATE
    INDEX 01 41:35:30
  TRACK 09 AUDIO
    TITLE "Trois Pieces symphoniques - I. Allegretto quasi Allegro"
    INDEX 01 47:51:55
  TRACK 10 AUDIO
    TITLE "Trois Pieces symphoniques - II. Vivace"
    INDEX 01 52:40:12
  TRACK 11 AUDIO
    TITLE "Trois Pieces symphoniques - III. Allegro ma non troppo"
    INDEX 01 55:08:70


回复 支持 反对

使用道具 举报

发表于 2020-8-21 10:14:12 | 显示全部楼层
稀有资源挖掘,谢谢朋友辛苦了。
回复 支持 反对

使用道具 举报

发表于 2020-8-21 10:17:36 | 显示全部楼层
谢谢楼主分享好音乐
回复 支持 反对

使用道具 举报

发表于 2020-8-21 11:22:30 | 显示全部楼层
下了慢慢学习,感谢楼主!
回复 支持 反对

使用道具 举报

发表于 2020-8-21 12:48:44 | 显示全部楼层
稀有资源挖掘,谢谢朋友辛苦了,感谢楼主!
回复 支持 反对

使用道具 举报

发表于 2020-8-21 14:22:39 | 显示全部楼层
感谢楼主!这资源很难得。
回复 支持 反对

使用道具 举报

发表于 2020-8-21 14:46:34 | 显示全部楼层
朋友辛苦了,感谢楼主!
回复 支持 反对

使用道具 举报

发表于 2020-8-21 14:56:31 | 显示全部楼层
阿尔伯特·鲁宾森的作品没有听过,下了慢慢听。谢谢楼主分享!
回复 支持 反对

使用道具 举报

发表于 2020-8-21 16:34:39 | 显示全部楼层
太罕见的资源,谢谢分享!
回复 支持 反对

使用道具 举报

发表于 2020-8-21 16:38:35 | 显示全部楼层
楼主每天发贴,辛苦了,十分感谢。
回复 支持 反对

使用道具 举报

您需要登录后才可以回帖 登录 | 立即注册

本版积分规则

手机版|炫音音乐论坛 ( 皖ICP备13017420号-3 )皖公网安备 34082502000069号

GMT+8, 2020-9-24 03:23 , Processed in 0.095584 second(s), 30 queries , Gzip On.

Powered by Discuz! X3.4

© 2004-2017 炫音音乐论坛

快速回复 返回顶部 返回列表